<?xml version="1.0" standalone="no"?>
<!DOCTYPE svg PUBLIC "-//W3C//DTD SVG 1.1//EN" "http://www.w3.org/Graphics/SVG/1.1/DTD/svg11.dtd">
<svg xmlns="http://www.w3.org/2000/svg">
<metadata>Copyright (C) 2024 by original authors @ fontello.com</metadata>
<defs>
<font id="fonticon" horiz-adv-x="1000" >
<font-face font-family="fonticon" font-weight="400" font-stretch="normal" units-per-em="1000" ascent="850" descent="-150" />
<missing-glyph horiz-adv-x="1000" />
<glyph glyph-name="whatsapp" unicode="&#xe800;" d="M498 850l25 0c39-1 77-7 114-17 65-17 127-49 180-91 44-35 82-78 111-127 38-61 62-131 69-203 2-13 2-26 3-39l0-20c-1-19-2-37-5-56-9-69-34-136-72-195-34-54-79-101-131-137-55-39-117-65-182-79-83-18-171-13-252 13-28 9-56 20-82 34-82-26-164-52-246-78-5-2-11-3-15-5l-4 0c-5 1-10 5-11 11l0 4c2 8 5 16 8 23 25 76 51 152 77 228-43 74-67 159-67 244-1 67 13 134 40 196 26 60 64 114 111 159 47 44 102 79 161 102 54 21 111 32 168 33m-92-115c-63-17-120-50-167-95-49-46-85-105-104-170-24-81-20-171 12-250 12-29 28-57 47-83 2-3 3-8 2-12-14-41-28-83-42-124 43 14 86 28 129 41 4 2 8 1 12-1 31-21 66-37 101-48 59-17 121-21 181-10 75 13 145 49 199 100 54 51 93 118 111 190 14 59 14 121 0 180-14 55-40 108-76 152-42 52-97 92-159 116-78 31-165 36-246 14z m-69-149c12 3 25 5 38 6 8 0 16-3 22-9 8-8 12-20 17-31 9-22 18-45 28-67 2-6 5-11 6-17 2-7 1-14-2-21-4-7-7-15-13-21-5-6-10-13-16-19-2-3-5-5-8-9 3-6 7-11 11-16 20-27 43-51 68-73 25-21 53-38 84-49 7 7 13 15 20 23 7 8 14 17 20 26 5 7 13 12 22 12 10 0 20-4 29-8 28-13 55-26 82-40 6-3 13-7 16-13 3-6 4-12 4-18 0-16-4-32-9-47-4-12-13-22-22-30-11-10-24-18-37-25-11-5-23-10-36-10-18-2-35-1-53 2-29 6-58 16-86 27-33 12-63 31-91 52-37 29-70 63-98 101-10 12-18 25-28 38-21 31-38 66-42 104-2 29 2 58 15 84 7 13 15 25 26 34 9 8 21 11 33 14z" horiz-adv-x="1000" />

<glyph glyph-name="bale" unicode="&#xe801;" d="M17 834c12 12 29 18 45 16 12-2 23-8 33-15 39-24 76-51 113-79 2 1 5 3 8 5 11 8 23 16 36 23 46 26 97 46 149 56 14 2 27 5 40 6 15 2 29 3 44 3 21 1 43 1 65-2 19-1 38-4 57-9 63-13 123-40 177-76 48-33 90-75 124-123 33-46 58-98 73-152 6-20 10-41 13-62 4-23 5-45 6-68l0-13c-1-30-4-60-10-89-2-9-2-18-5-26-9-36-22-71-39-104-8-17-17-32-27-48-34-51-77-97-127-133-58-41-124-70-194-84-17-3-34-6-51-7-13-2-26-2-40-3l-13 0c-19 1-38 2-56 4-53 7-104 22-152 44-74 35-139 89-188 154-7 12-16 23-23 35-19 31-35 64-47 99-11 33-20 67-24 102-2 19-3 37-3 56-1 28 0 57 0 85 0 43 0 86 0 130-1 7 0 15-1 22l0 108c1 8 0 17 1 25 0 23-1 45 0 68 0 6-1 11 0 17 1 13 6 26 16 35m677-245c-9-3-19-8-27-13-11-8-19-17-28-26-12-12-24-24-36-36-15-15-30-29-44-44-12-11-22-23-34-33-7-8-14-15-22-23-13-12-24-25-37-37-12-11-22-23-33-33-29 28-58 57-86 85-12 12-27 21-43 26-19 6-40 4-59-2-6-2-12-4-17-8-15-10-29-23-38-40-10-20-12-44-8-67 4-13 10-27 19-38 5-6 11-11 16-17 49-49 98-98 147-147 18-17 41-27 65-28 20-1 41 5 57 16 14 10 25 23 38 35 90 89 179 179 269 269 10 11 19 24 23 38 7 22 5 46-3 67-11 25-31 45-57 54-20 7-42 8-62 2z" horiz-adv-x="1000" />

<glyph glyph-name="eitaa" unicode="&#xe802;" d="M144 807c43 27 94 42 146 42 139 0 278 0 417 0 21 1 43-2 63-6 56-13 108-43 146-86 41-45 67-104 71-166 0-51 0-103 0-155-30-14-56-37-80-60-47-44-88-94-135-139-33-33-69-64-111-86-29-15-61-25-94-24-19-1-38 3-57 9-5-3-8-8-12-11-12-13-22-27-30-42-8-14-14-29-16-45-17 3-34 9-49 18-28 15-51 37-68 64-17 28-27 61-24 94-14 11-28 24-37 40-11 18-16 39-16 59 0 20 4 39 10 57 10 30 27 57 46 81 18 23 40 45 64 62 54 38 119 60 184 64 38 2 76-1 112-12 18-6 35-14 50-25 10-9 19-19 22-32 3-10 1-22-4-32-7-13-19-23-32-32-23-16-50-28-76-37-36-13-74-21-112-20-19 1-39 4-56 14-13 7-23 18-29 31-7 17-7 36-5 54-18-6-32-20-42-35-17-28-23-65-11-96 6-15 17-29 30-40-10-9-19-21-25-34-16-32-19-70-9-105 7-27 25-52 49-66 13 33 34 62 60 85 23 21 50 38 77 53 31 17 63 33 93 51 27 16 54 33 77 54 23 20 43 44 59 69 16 26 29 53 36 82 9 37 9 75-1 111-8 31-24 60-46 83-23 25-53 43-86 54-37 12-77 15-115 10-36-4-72-14-105-28-41-18-79-42-114-71-44-36-83-79-115-126-27-40-49-83-65-128-26-74-34-155-18-233 12-58 38-114 79-157 22-24 48-43 76-59 25-14 52-24 80-30 34-7 71-6 106 1 42 9 82 26 118 49 55 34 102 80 142 130 50 63 92 132 147 190 24 25 50 48 78 67 0-79 0-157 0-235 0-11 1-23-1-35-6-56-30-110-67-152-42-47-99-80-160-91-9-2-18-2-27-4l-462 0c-3 1-6 1-10 1-58 7-115 33-158 73-45 42-76 99-86 159-3 19-3 37-3 56 0 143 0 286 0 430-1 44 10 88 30 127 23 45 58 84 101 111z" horiz-adv-x="1000" />

<glyph glyph-name="facebook" unicode="&#xe803;" d="M455 820c35 22 77 30 118 30 52 0 104-1 156-1 1-57 0-114 0-171-37 0-75 0-113 0-14 0-29-7-35-19-8-13-7-29-7-43 0-30 0-60 0-90 53 0 105 0 158 0-6-59-12-117-18-176-47 0-93 0-140 0 0-167 0-333 0-500l-208 0c0 167 0 333 0 500-33 0-66 0-99 0 0 59 0 117 0 176 33 0 66 0 99 0 0 36 0 72 0 108-1 41 7 83 26 119 15 27 37 51 63 67z" horiz-adv-x="1000" />

<glyph glyph-name="instagram" unicode="&#xe804;" d="M422 850l155 0c48 0 96-1 144-4 35-2 71-8 104-21 27-10 53-25 76-45 21-18 39-39 54-63 16-29 27-60 34-92 6-30 8-61 9-92 1-35 1-70 2-106l0-154c-1-47-1-94-4-142-2-34-8-69-20-101-10-28-24-54-43-77-21-25-46-47-74-62-26-14-55-24-84-30-19-4-39-6-59-7-46-3-93-3-140-4l-153 0c-31 0-62 1-93 2-29 1-58 2-86 6-33 5-65 14-95 29-25 12-46 28-65 47-19 19-35 41-47 65-15 30-25 63-29 96-4 23-5 48-6 72-2 35-2 71-2 106l0 155c0 39 1 78 2 117 2 29 4 59 10 88 5 18 11 36 18 54 12 30 31 57 54 79 22 22 47 40 76 53 23 10 47 17 71 21 25 5 50 7 76 8 38 2 77 2 115 2m-46-90c-24-1-49-1-73-3-22 0-43-2-64-7-17-4-34-9-50-17-15-8-29-18-41-30-11-11-21-23-28-37-17-31-24-67-26-102-3-40-3-80-4-120 0-50 0-100 0-151 0-52 1-105 4-158 2-34 9-69 25-99 8-14 17-27 29-38 12-12 26-22 41-30 14-7 29-12 43-16 34-8 68-8 102-10 32-1 65-1 97-1 34 0 68 0 102 0 52 0 105 0 157 2 35 1 71 5 104 18 17 6 33 15 46 26 12 11 23 22 32 36 17 25 26 55 31 85 4 25 4 51 5 77 2 54 1 108 1 163 0 59 1 118-1 178-1 21-2 42-5 64-4 28-12 56-26 81-9 16-22 29-35 41-12 10-25 18-39 24-33 15-68 20-104 21-50 3-100 3-151 3-57 0-114 0-172 0z m382-84c13 2 27 0 39-7 12-7 22-19 26-32 5-15 5-31-2-46-5-10-13-20-24-26-12-7-27-10-42-7-14 3-27 11-36 22-9 12-13 27-12 41 1 13 6 26 14 35 10 11 23 18 37 20z m-279-70c41 3 81-4 118-20 55-23 101-66 128-120 31-61 36-135 14-200-19-54-57-102-106-133-26-17-55-28-86-34-41-9-85-7-126 5-55 17-104 53-137 101-18 27-32 58-39 90-10 44-7 91 6 133 14 45 41 85 77 116 42 37 96 59 151 62m1-90c-22-3-44-10-64-22-27-16-50-39-64-67-16-30-22-65-17-98 3-30 15-58 34-82 20-25 47-44 78-55 34-11 72-11 106 0 28 10 54 27 73 50 20 23 34 52 38 82 6 34 1 69-14 100-15 30-40 56-70 72-30 17-65 24-100 20z" horiz-adv-x="1000" />

<glyph glyph-name="telegram" unicode="&#xe805;" d="M467 849c81 5 164-9 238-43 63-28 119-69 165-120 37-40 66-86 88-136 25-56 38-117 41-178 2-21 0-42-1-63-6-77-31-152-71-218-36-59-84-111-141-151-77-53-169-85-263-89-15-1-30-1-46 0-44 2-89 10-131 24-53 17-102 42-146 75-51 39-96 88-129 143-40 67-64 144-70 222-4 63 3 127 23 188 20 62 52 121 95 170 45 54 103 99 167 129 56 27 118 43 181 47m224-302c-20-3-39-12-59-20-129-54-258-109-387-163-12-6-25-11-37-18-6-4-11-8-14-14-2-6-1-13 4-18 6-5 14-7 21-10 21-7 42-13 63-19 11-3 22-7 34-8 16 0 33 3 47 11 13 8 25 16 37 24 48 32 96 64 144 97 12 9 25 17 37 26 4 3 8 4 12 2 3-1 5-5 4-8 0-3-2-6-4-9-51-50-103-100-154-151-6-5-11-13-12-21-1-9 4-18 10-24 5-6 12-9 18-13 47-31 94-63 140-95 14-8 29-14 45-14 5 0 9 2 13 5 7 8 11 18 15 28 6 14 8 28 11 43 12 66 22 132 32 199 6 41 13 83 18 125 1 8 2 16 0 25-2 6-6 13-12 16-8 5-17 5-26 4z" horiz-adv-x="1000" />

<glyph glyph-name="linkedin" unicode="&#xe806;" d="M88 847c20 1 41 1 60-6 20-8 38-23 48-42 13-24 17-52 12-78-5-24-18-46-38-61-19-14-43-20-67-19-27-1-54 9-73 29-18 17-27 40-29 64-3 26 4 54 20 75 16 21 41 35 67 38z m598-312c22 4 45 4 68 4 36-1 73-7 106-23 50-24 90-69 112-121 13-32 18-66 24-101 4-28 3-57 3-85 1-8 0-17 1-25l0-318c0-5-1-9-1-13-63 0-127 0-190-1-4 1-8 0-11 3-3 3-2 7-3 10 1 86 1 171 1 257 0 10-1 20 0 31 0 18 0 35-1 53 0 17 0 35-2 52-3 14-6 29-12 43-7 15-18 29-32 38-13 10-29 16-45 20-18 5-37 6-55 4-15-2-29-6-41-13-17-8-30-21-41-36-7-10-14-21-18-33-7-19-8-40-8-60-1-122 0-245 0-368-68 0-136 0-203 0 0 218 0 437 0 655-1 4 3 7 7 7 63 0 126 0 188 0 3 0 5-1 7-1 0-28 0-55 0-83 1 0 2 0 2 0 10 13 20 27 31 39 29 33 70 56 113 65z m-673-25c16 1 32 0 47 0 46 0 92 0 139 1 3 0 7 0 9-3 3-3 2-7 3-11 0-107 0-214 0-321-1-103-1-206 0-309 0-4 0-7-2-11-3-5-11-3-16-3-58 0-116 0-174-1-4 1-8 0-11 3-2 3-2 7-2 11 0 211 0 421 0 632 0 3 0 6 1 9 2 2 4 3 6 3z" horiz-adv-x="1000" />

<glyph glyph-name="sapp" unicode="&#xe807;" d="M472 850l57 0c19-3 38-4 57-7 22-5 43-10 64-17 13-4 25-8 37-13 61-26 118-63 164-111 41-43 74-93 97-147 11-24 19-49 26-75 20-80 18-165-3-245-17-62-46-121-86-172-22-27-46-52-72-74 1-43 2-86 0-129 0-4-3-7-5-10l-8 0c-4 3-8 5-12 7-35 18-68 37-102 55-104-43-224-48-331-15-55 17-107 44-153 79-49 38-91 86-123 139-35 60-57 127-64 195-6 52-4 105 8 156 5 23 11 45 20 67 6 18 14 35 22 52 29 55 68 105 115 145 24 21 49 40 77 55 59 35 126 56 195 63 7 0 13 1 20 2m53-188c-34-11-65-32-88-58-23-27-39-59-45-93-4-20-5-41-3-61 2-20 8-39 14-58 5-17 10-35 15-52 4-19 7-38 6-58-2-17-6-34-13-50-13-26-35-49-61-63-33-18-73-21-109-10-11 3-19 9-30 11 11-19 27-34 44-48 21-20 47-35 73-46 63-26 135-29 199-8 54 18 105 52 138 99 17 24 27 52 33 81 6 37 3 76-8 112-6 19-13 38-23 55-14 28-34 52-53 77-8 12-17 23-24 35-10 15-18 31-23 48-4 16-4 33 2 49 6 18 17 34 32 45-1 1-2 2-4 2-24 2-49-2-72-9z" horiz-adv-x="1000" />

<glyph glyph-name="twitter" unicode="&#xe808;" d="M1 850l296 0c3-2 5-6 7-8 84-120 168-240 252-359 97 110 195 221 292 332 10 12 21 23 31 35l87 0c-1-3-3-4-4-6-75-85-150-170-225-255-47-54-95-108-142-162 45-64 89-127 134-191 90-128 180-257 270-385-99 0-198 0-297 0-91 129-182 258-273 388-113-130-227-259-341-388-29 0-58 0-88 0 130 148 260 295 390 443-128 183-256 366-384 548-2 3-4 5-5 8m120-65c10-15 20-29 31-44 197-276 394-552 591-828 45 0 90 0 135 0-103 144-206 288-309 432-103 145-207 290-310 436-2 1-3 4-5 4-44 0-89 0-133 0z" horiz-adv-x="1000" />

<glyph glyph-name="youtube" unicode="&#xe809;" d="M483 721c96 0 193-3 288-13 25-3 50-6 74-10 14-3 28-5 41-10 27-10 52-28 68-52 9-12 15-26 17-41 16-77 24-156 28-234 0-5 1-10 1-14-2-23-2-46-4-69-4-57-11-115-20-172-5-30-23-57-48-74-16-12-35-20-54-24-9-2-19-4-29-6-46-7-92-12-139-15-117-9-235-10-352-4-37 2-75 4-112 8-38 4-77 8-114 16-31 6-60 22-81 46-12 14-21 31-25 50-4 20-7 40-10 60-11 83-13 167-10 251 2 61 8 121 17 180 5 26 19 50 39 68 21 17 46 28 72 33 43 8 85 13 128 17 75 6 150 9 225 9m-112-221c1-104 0-208 1-312 94 54 188 108 282 162-10 7-21 12-32 18-83 48-167 96-250 144-1-4 0-8-1-12z" horiz-adv-x="1000" />

<glyph glyph-name="account" unicode="&#xe80a;" d="M358 715c61 0 121 0 182 0 52-1 104 0 156-1 41-2 83-4 122-16 29-8 57-24 77-47 21-23 34-52 41-83 2-8 1-17-3-24-5-12-19-18-31-16-13 1-24 11-27 23-3 15-7 30-15 43-9 15-23 28-38 36-15 7-31 12-47 14-22 4-43 6-65 7-44 2-89 1-134 1-54 0-107 0-161 0-39 0-77 0-116-1-24-1-47-2-71-6-17-3-34-7-50-15-12-6-23-15-31-26-10-12-16-26-20-40-5-18-7-37-9-55-3-34-3-68-3-101 0-46-1-92 0-137 0-26 1-51 3-77 1-18 4-35 8-52 4-15 9-29 17-41 9-12 20-22 33-29 15-8 31-12 47-15 23-5 46-6 68-7 45-2 90-2 135-2 75 0 150 0 225 1 29 0 57 0 85 2 17 2 34 4 51 8 14 3 27 7 39 14 15 9 28 22 36 37 7 13 11 27 14 40 4 21 6 43 7 64 2 42 2 84 2 125 0 9-1 17 3 25 6 13 22 20 36 17 10-3 19-11 22-22 2-6 1-13 1-20 0-49 1-98-3-148-3-36-8-73-25-106-14-29-38-54-68-69-32-17-68-23-104-26-47-4-95-4-142-4-60 0-120 0-180 0-40 0-80 0-120 1-35 1-70 3-104 10-28 6-56 17-78 35-24 19-42 46-52 75-13 37-16 78-17 117-2 51-2 102-2 153 0 34 0 69 2 103 2 39 5 78 18 115 10 29 28 56 53 75 27 21 60 31 92 36 47 8 94 8 141 9z m2-126c25 3 51-2 73-15 25-15 44-40 52-68 9-31 4-66-14-94-19-28-50-47-83-51-32-3-64 7-88 28-14 11-24 26-31 43-10 24-11 52-4 77 8 24 23 45 43 59 15 11 34 18 52 21m3-63c-16-4-30-15-36-30-6-14-6-31 1-44 6-12 18-22 31-26 11-4 22-4 33 0 12 4 23 14 29 25 6 12 8 26 4 39-4 13-14 25-26 31-11 6-24 8-36 5z m213-20c2 0 5 0 7 0 67 0 135 0 202 0 5 0 10 1 14-1 11-2 19-10 22-20 4-12 0-25-8-33-6-5-14-8-22-8-68 0-136 0-203 0-6 0-13 0-18 3-11 5-19 17-18 29 0 14 10 27 24 30z m42-125c4 1 7 0 11 0 55 0 109 0 164 0 16 0 30-15 30-31 0-17-15-31-31-31-56 0-111 0-167 0-10 0-20 5-26 14-7 9-7 23-1 33 4 7 12 13 20 15z m-260-42c38 2 77-2 114-13 19-6 38-14 55-26 13-8 24-19 32-31 8-13 13-27 14-42 0-17 0-33-6-49-5-14-15-27-27-36-14-10-30-16-46-20-20-5-41-8-61-9-22-2-43-2-65-2-27 0-54 1-80 5-18 2-35 5-51 11-13 5-26 12-36 22-11 11-18 25-21 39-3 13-3 26-3 39 0 14 5 27 12 39 9 14 21 26 35 35 28 18 60 28 92 34 14 2 28 4 42 4m-4-62c-24-2-47-6-69-15-13-5-26-11-37-21-4-5-9-10-9-17 1-8 0-17 3-25 1-6 8-9 14-12 15-6 32-9 49-11 25-2 51-3 77-3 23 1 46 1 70 4 13 2 27 4 40 9 4 2 9 4 13 8 3 3 4 8 5 12 0 6 0 13 0 19 0 6-3 10-7 14-8 9-18 15-29 20-15 7-32 11-48 14-24 4-48 5-72 4z m310-21c43 1 85 1 128 1 15 0 28-12 30-26 3-14-5-29-18-34-5-2-10-3-15-3-39 0-77 0-116 0-5 0-10 0-14 1-10 2-18 10-22 19-4 11-2 24 6 32 5 6 13 10 21 10z" horiz-adv-x="1000" />

<glyph glyph-name="add" unicode="&#xe80b;" d="M359 797c57 1 114 1 171 1 52 0 103 0 154-3 40-3 80-8 118-21 29-10 55-25 76-47 23-23 39-52 48-82 13-41 17-83 19-126 1-11-5-23-14-29-11-6-26-6-36 2-7 5-11 13-12 22-2 35-5 70-14 105-4 15-10 30-19 43-9 15-22 28-37 38-26 17-57 24-87 28-48 6-96 7-144 7-39 1-78 1-117 0-38 0-76 0-113-1-37-1-74-4-109-12-20-4-39-11-56-22-21-14-38-34-48-57-9-21-14-45-17-68-5-40-6-80-7-120-1-53 0-105 0-157 0-43 0-86 3-128 1-23 3-46 8-68 4-19 9-37 17-53 13-25 34-45 58-57 28-13 58-18 88-21 39-4 78-5 118-6 62 0 124 0 186 0 46 1 92 2 137 8 30 5 61 12 87 30 14 10 27 24 35 39 16 26 22 57 26 87 6 46 6 92 7 139 0 28 0 57 0 85 1 16 16 29 32 28 16 1 30-13 30-29 0-52 1-104-1-156-2-40-5-80-14-119-7-32-20-62-40-88-20-25-47-45-76-58-35-14-73-20-111-24-48-4-96-4-144-4-58 0-115-1-172 0-33 1-66 2-98 5-31 3-61 7-90 17-27 9-52 23-73 42-22 20-39 46-49 73-14 36-20 75-23 114-3 47-4 95-4 143 0 57 0 114 1 171 1 44 2 89 10 133 6 37 18 73 40 104 14 19 31 36 51 48 30 20 65 30 100 35 35 6 70 8 105 9z m110-320c0 15 12 28 27 29 14 2 28-7 33-20 2-5 2-10 2-15 0-30 0-60 0-90 29 0 57 0 86 0 7 0 14 1 20-2 14-6 22-21 18-35-2-14-16-25-30-25-31 0-63 0-94 0 0-28 0-55 0-83 0-7 1-15-2-23-5-11-17-19-29-19-13 0-24 8-29 19-2 5-3 9-2 14 0 31 0 61 0 92-31 0-63 0-94 0-9 0-17 4-23 10-9 9-11 23-6 34 5 11 16 18 28 18 32 0 63 0 95 0 0 32 0 64 0 96z" horiz-adv-x="1000" />

<glyph glyph-name="address" unicode="&#xe80c;" d="M604 738c20 6 41 6 62 3 18-3 35-9 52-14 25-8 49-16 73-24 16-6 33-11 49-18 15-5 30-13 41-25 11-11 19-27 22-43 3-22 3-44 3-66 0-15-12-28-27-30-13-2-28 6-33 18-4 8-2 17-3 25 0 13 0 25-1 38-1 6-2 12-7 16-6 4-13 7-19 10-18 7-35 12-53 18-21 7-42 14-63 21-15 5-29 9-44 12 0-40 0-80 0-120 0-9-4-18-11-24-9-8-24-10-35-4-10 5-16 16-16 27 0 36 0 72 0 107-17-9-32-20-48-30-28-19-57-38-85-57-18-11-35-22-55-30 0-80 0-160 0-240 0-8-4-16-10-22-8-8-22-11-33-6-9 3-16 12-18 21-2 5-1 10-1 15 0 75 0 150 0 225-26 3-51 12-76 20-19 7-39 13-58 19-9 2-19 5-28 5-6 0-12-3-16-7-4-4-6-10-7-15-2-14-2-29-3-43 0-68 0-136 0-204 0-16-15-30-31-29-16 0-30 13-31 29 0 18 0 35 0 53 0 51 0 101 0 152 0 18 1 35 4 53 2 13 7 27 15 38 12 15 28 27 47 32 21 6 44 2 65-4 23-6 46-14 68-21 16-5 31-11 47-14 18-4 38-2 54 6 13 7 25 15 37 23 33 22 66 44 100 66 23 15 46 30 73 38z m-10-345c-1 16 15 31 31 30 16 0 31-14 31-30 0-78 0-156 0-233 27-4 52-13 78-21 22-8 44-16 66-21 8-1 16-3 24-2 6 3 13 8 15 15 3 11 3 22 4 33 1 27 0 54 0 82 0 49 0 98 0 148 1 16 15 30 32 29 16 1 30-13 31-29 0-57 0-114 0-171 0-23 0-46-1-68-1-18-3-36-10-52-9-21-28-37-49-45-18-7-39-5-58-1-22 5-43 12-65 19-21 7-41 15-62 20-17 4-34 2-50-4-14-6-26-15-39-23-27-17-53-35-79-53-22-14-44-29-67-42-18-9-37-15-57-16-29-2-58 7-86 15-35 12-70 23-105 35-18 7-36 13-51 25-13 10-23 24-27 40-6 19-6 39-6 59 0 7-1 13 1 19 3 11 12 19 22 21 12 3 25-1 32-10 4-5 7-12 7-19 0-14 0-28 2-43 0-6 2-13 6-17 6-5 12-7 19-10 16-6 33-12 50-17 20-7 40-14 60-20 17-6 34-11 51-14 0 40 0 80 0 120 0 9 3 17 9 23 9 8 23 11 34 6 9-4 16-11 18-21 1-4 1-9 1-14 0-34 0-67 0-101 26 15 50 32 75 49 17 11 34 23 51 34 20 13 39 26 62 34 0 80-1 161 0 241z" horiz-adv-x="1000" />

<glyph glyph-name="arrow-down" unicode="&#xe80d;" d="M118 663c8-8 15-16 23-24 120-122 239-243 359-365 127 129 254 259 382 389 36-36 72-73 108-109 3-3 6-6 10-9l0 0c-6-6-12-13-18-19-151-153-302-305-453-458-9-10-19-20-29-30-167 169-333 338-500 507l0-1 0 1c39 39 79 78 118 118z" horiz-adv-x="1000" />

<glyph glyph-name="arrow-next" unicode="&#xe80e;" d="M305 850l0 0c169-166 338-333 507-500-168-166-336-332-505-498 0-1-1-1-2-2l0 0c-2 4-6 6-9 9-36 37-72 73-108 109 5 6 11 11 16 17 124 122 248 244 372 365-116 114-231 228-347 342-14 13-28 27-42 40 40 40 79 79 118 118z" horiz-adv-x="1000" />

<glyph glyph-name="arrow-prev" unicode="&#xe80f;" d="M694 850l0 0c40-39 79-78 118-118-96-95-193-190-290-285-33-32-66-64-99-97 90-88 180-177 270-265 40-39 80-78 119-117-39-39-79-78-118-118l0 0c0 1-2 2-3 3-168 166-336 332-504 497 6 6 11 11 17 16 163 162 327 323 490 484z" horiz-adv-x="1000" />

<glyph glyph-name="arrow-up" unicode="&#xe810;" d="M0 156c166 169 333 338 499 507 2-1 2-2 3-3 165-167 330-335 496-502 0-1 1-2 2-2l0 0c-39-39-79-79-118-118-128 129-255 259-382 389-128-130-255-260-382-389-39 38-77 77-115 115-1 0-2 2-3 2l0 1z" horiz-adv-x="1000" />

<glyph glyph-name="basket" unicode="&#xe811;" d="M406 705c24 18 54 29 84 30 34 3 68-6 96-25 24-16 44-39 56-65 8-18 13-38 14-57 0-7 0-13 0-19 15 0 29 0 44 0 10 0 21 1 31-1 28-4 55-19 73-42 15-19 24-43 25-68 7-94 14-188 22-283 2-38-7-77-26-110-17-30-42-55-71-73-31-18-66-27-102-27-91 0-181 0-272 0-16 0-31 0-46 1-31 2-62 11-89 27-29 18-54 43-71 73-16 29-25 62-25 96 0 10 1 21 1 31 7 91 14 181 21 272 3 29 17 56 38 75 21 18 47 29 74 29 20 0 40 0 61 0-1 20 1 40 7 59 10 30 30 57 55 77m41-48c-21-14-35-37-39-61-2-9-2-18-2-27 63 0 125 0 188 0-1 6 0 12-1 18-1 13-5 27-12 39-13 24-39 42-67 46-24 4-48-2-67-15m-198-165c-9-9-15-21-16-34-6-89-13-178-20-268-1-11-2-23-2-35 2-29 13-57 32-79 20-24 49-41 79-46 11-2 22-2 32-2 93 0 186 0 279 0 9 0 18 0 27 0 25 1 50 9 71 24 30 21 51 55 56 91 2 14 2 27 0 41-6 87-13 174-20 261-1 10-1 20-5 30-7 18-26 31-46 32-20 0-40 0-60 0 0-46 0-91 0-137 0-16-15-31-32-30-16 0-30 14-30 30-1 46 0 91 0 137-63 0-125 0-188 0 0-43 0-86 0-129 0-6 0-13-2-18-5-13-19-22-33-20-15 2-27 15-27 30 0 46 0 91 0 137-20 0-39 0-59 0-13 0-27-6-36-15z" horiz-adv-x="1000" />

<glyph glyph-name="chart" unicode="&#xe812;" d="M359 797c52 1 104 1 156 1 54 0 109 0 164-3 39-2 79-6 116-18 31-10 60-26 82-49 23-22 38-50 48-80 14-41 18-86 20-130 1-14-9-28-24-31-13-4-29 3-35 16-4 7-3 16-4 24-2 31-5 62-13 91-4 16-10 30-18 44-10 15-23 28-38 38-12 8-24 13-37 17-21 7-43 10-64 13-43 4-85 5-128 5-46 1-91 1-137 0-48 0-97 0-145-4-22-2-43-5-64-10-18-4-36-11-51-21-21-14-38-34-48-57-9-22-14-46-17-69-5-40-6-80-7-120-1-52 0-104 0-156 0-43 0-87 3-130 1-23 4-45 8-68 4-19 10-37 19-54 12-22 31-41 53-52 20-10 42-16 63-20 32-5 64-7 96-8 36-1 72-1 108-1 32 0 64 0 96 0 46 0 93 1 139 5 21 1 41 4 61 9 18 4 35 11 50 20 22 14 39 35 49 58 9 20 14 41 17 62 6 42 7 84 8 126 0 31 0 62 0 93 0 9-1 18 3 26 6 13 22 20 35 17 11-3 20-11 23-21 2-6 1-12 1-18 0-54 1-109-2-164-2-41-6-83-19-122-9-31-25-61-49-83-22-23-51-40-82-49-38-12-77-16-116-19-56-3-112-2-167-2-56 0-112-1-167 1-32 2-64 4-95 9-30 5-60 14-87 29-27 15-51 37-67 64-19 30-29 66-34 101-6 39-8 79-9 118-1 49-1 97-1 146 0 33 0 65 1 98 1 38 2 77 7 116 4 25 9 49 18 73 7 20 18 39 31 56 13 15 27 28 44 39 30 19 65 29 100 35 35 6 70 8 106 9z m132-167c13 4 27-1 34-12 4-5 6-12 6-19 0-163 0-327 0-490 0-8 0-17-4-24-7-13-24-19-37-14-12 4-21 16-21 28 0 166 0 331 0 496 0 5-1 10 1 14 3 10 11 19 21 21z m-207-124c14 3 29-4 35-16 3-5 4-11 4-17 0-124 0-249 0-374 0-15-13-28-28-30-13-1-28 7-33 20-1 4-2 7-2 11 0 126 0 251 0 376 0 14 11 27 24 30z m416-167c13 4 28-2 35-14 3-5 4-11 4-17 0-69 0-138 0-208 0-8-3-17-10-22-8-9-23-11-34-6-11 5-18 16-18 28 0 70 0 140 0 209 0 14 10 26 23 30z" horiz-adv-x="1000" />

<glyph glyph-name="comment" unicode="&#xe813;" d="M332 769c21 4 43 6 64 5 59 0 117 0 175 0 23 0 47 1 70-1 63-6 124-29 175-67 47-34 85-79 111-131 28-55 40-118 36-180-4-70-29-138-70-193-16-21-34-41-54-58 0-53 0-106 0-159-1-9 1-19-2-28-5-14-17-25-31-29-13-4-27-2-38 6-5 4-9 8-13 11-45 38-90 76-136 114-30-1-61-1-91-1-45 0-90 0-135 0-70 0-139 21-197 60-50 33-92 80-120 134-15 29-26 60-33 92-13 62-9 127 12 187 21 63 60 119 110 161 48 40 106 67 167 77m54-63c-42-1-85-12-123-32-53-26-97-70-125-122-29-54-40-118-30-179 5-36 18-71 36-102 29-50 73-91 125-116 37-17 79-27 120-28 63 0 126 0 188 0 17 0 33 0 49 1 9 0 18-2 25-7 4-2 7-5 11-8 31-26 62-52 93-78 2-2 4-4 7-4 4-1 8 3 8 6 0 40 0 80 0 119 0 13 6 26 16 34 33 26 60 59 78 97 27 53 37 115 28 174-9 57-36 111-75 153-43 46-102 78-164 88-18 3-37 4-56 4-70 0-140 0-211 0z" horiz-adv-x="1000" />

<glyph glyph-name="dashboard" unicode="&#xe814;" d="M311 797c35 1 71 1 106 1 12 0 23-7 28-18 5-11 3-25-5-34-6-6-13-10-21-10-43-1-86 0-129-2-21-1-43-2-64-6-17-3-34-8-50-16-13-7-25-17-33-30-8-12-13-25-17-39-4-15-6-31-7-46-1-9-6-17-13-22-10-8-25-8-35-1-10 6-16 18-14 30 3 35 10 70 27 101 16 29 41 53 71 67 32 14 67 19 101 22 18 2 36 3 55 3z m266 0c2 1 5 1 8 1 50 0 101 0 151-3 35-3 70-7 103-21 28-12 52-31 69-56 15-23 24-49 29-75 6-31 8-62 9-94 2-39 1-78 1-117 0-14-12-27-26-29-13-3-26 4-32 16-3 5-4 10-4 16 0 43 0 85-2 128-1 29-3 57-11 84-4 16-11 31-21 43-9 10-19 18-31 24-15 8-32 11-49 14-22 4-44 5-66 6-39 2-79 1-118 2-7-1-14 0-20 4-10 5-16 17-15 29 0 13 11 26 25 28z m-273-145c22 1 44 0 66 0 16 0 31 0 46-4 15-4 29-12 37-24 11-14 14-31 15-48 1-21 0-43 1-65-1-22 0-43-2-65-2-16-8-31-19-43-12-12-28-18-44-20-22-2-44-1-67-1-22 0-44-1-67 1-16 1-33 5-46 15-12 10-20 25-23 40-3 16-3 32-3 48 0 24-1 49 1 73 2 18 6 37 16 52 8 14 22 25 37 31 16 7 34 9 52 10m-8-64c-7 0-15-1-22-4-5-2-8-7-9-12-3-11-4-22-4-34-1-20-1-40-1-60 1-10 0-21 3-31 7-2 13-2 20-3 14 0 29 0 43 0 20 0 40 0 59 0 6 1 12 1 18 3 1 3 2 6 2 8 1 9 1 17 1 25 0 25 0 51 0 77 0 10 0 20-3 30-4 1-7 2-11 2-14 1-27 1-40 1-19 0-37 0-56-2z m312 64c20 1 40 0 60 0 22 0 43 0 64-5 17-4 33-11 44-24 10-12 10-30 0-41-9-11-26-14-39-7-5 2-8 8-13 9-8 3-16 4-24 5-24 1-47 1-70 1-10 0-20 0-30-2-1-1-4-1-4-3-2-8-2-16-2-25-1-20 0-40 0-60 0-14-1-28 0-42 1-3 1-7 2-11 3-1 7-2 10-2 14-1 27-1 41-1 21 0 42 0 62 0 9 0 17 0 26 2 2 1 2 4 3 6 2 15 1 31 1 46 1 12 9 23 20 27 12 5 27 1 35-8 6-7 8-15 8-23-1-21 1-43-5-64-5-17-17-31-33-39-18-9-37-9-56-9-25 0-50 0-74 0-19 0-38-1-56 5-15 5-29 16-37 31-8 16-9 35-10 53 0 24 0 49 0 73 0 18 0 37 4 56 4 15 13 29 26 38 14 10 31 13 47 14z m-532-146c14 3 28-4 35-16 3-5 4-10 4-16 0-14 0-27 0-41-1-9-5-17-11-23-10-8-24-10-35-4-10 5-17 16-17 27 0 15 0 29 0 44 1 14 11 26 24 29z m193-188c23 2 46 1 68 1 23 0 46 1 68-2 17-2 34-9 45-22 11-12 16-29 17-45 2-22 1-44 2-66-1-22 0-45-2-67-1-16-6-32-16-44-11-12-26-19-41-22-21-3-42-2-62-3-24 0-47 0-70 3-19 3-37 10-51 23-8 7-12 17-11 27 1 11 9 22 20 26 9 4 21 3 29-3 3-3 6-6 9-7 7-3 13-4 20-5 19-1 38-1 57-1 14 0 28 0 42 1 3 0 7 0 10 2 1 1 1 3 1 4 2 9 2 18 2 27 0 26 0 52 0 77 0 9 0 19-2 28 0 1 0 4-2 4-9 2-17 2-25 2-21 1-41 0-62 1-14-1-27 0-41-1-4-1-7-1-10-2-2-2-2-5-2-7-2-15-1-30-2-44 0-15-12-28-26-29-13-2-27 5-33 17-2 4-3 10-3 15 0 20-1 39 4 59 3 15 11 30 25 39 12 9 27 13 42 14z m333 0c23 2 46 1 68 1 22 0 45 1 67-2 16-2 32-8 44-20 11-11 16-25 19-40 2-18 2-36 2-54 0-18 0-36-1-55-1-15-3-29-8-43-5-13-13-25-24-34-9-7-19-13-30-16-13-4-27-5-41-6-20-1-41-1-62-1-16 0-32 0-48 3-15 3-29 10-38 22-11 12-16 28-18 44-2 23-1 45-1 68 0 23-1 45 2 68 2 17 8 34 21 46 13 12 31 18 48 19m-6-64c-2-7-2-14-2-21-1-15 0-30 0-45 0-16-1-33 0-50 0-8 0-16 2-24 10-3 21-3 31-3 19 0 39 0 58 0 13 1 26 1 38 5 7 2 11 7 12 14 4 16 4 33 4 49 0 17 0 34 0 51 0 8 0 16-3 24-10 3-21 2-31 3-26 0-53 0-79 0-10-1-20 0-30-3z m-518 44c9 1 18-1 24-6 8-6 12-15 13-24 0-44-1-88 1-132 1-21 3-42 7-63 3-16 7-32 15-46 8-15 20-28 34-37 14-8 29-12 44-16 30-6 60-7 90-8 37-1 75-1 113-1 15-1 27-13 29-28 1-13-6-26-18-32-6-3-13-3-19-2-34 0-67-1-100 0-32 1-65 3-97 8-27 5-54 13-77 28-26 16-47 40-59 68-15 34-20 70-23 106-3 48-3 97-3 146 0 6 0 12 2 17 3 11 13 20 24 22z m831-1c14 4 28-3 35-15 3-5 4-12 4-18-1-14 0-27-1-41 0-15-13-27-27-29-14-1-27 7-32 19-3 5-3 11-3 17 0 11 0 21 0 32 0 5 0 10 1 14 3 11 13 19 23 21z m-3-166c14 3 30-5 35-19 4-9 2-19 1-28-4-32-12-65-29-93-16-28-42-50-71-63-33-15-69-20-104-22-48-4-96-3-144-3-8 0-16-1-24 2-13 6-20 20-18 34 2 11 11 21 22 24 5 2 11 2 17 2 48 0 96 0 143 3 19 1 39 4 57 8 15 4 29 9 42 18 14 10 25 23 32 39 10 23 14 47 16 72 2 13 12 24 25 26z" horiz-adv-x="1000" />

<glyph glyph-name="date" unicode="&#xe815;" d="M234 809c1 17 15 32 31 34 16 2 33-7 38-22 2-5 3-9 3-14 0-18 0-35 0-53 129 0 258 0 388 0 0 16 0 31 0 46 0 5-1 10 0 14 2 10 9 19 18 24 10 6 22 7 32 2 13-6 21-19 21-32 0-18 0-36 0-54 26 0 52 0 78 0 31 1 62-9 87-27 24-17 42-41 52-68 7-17 11-36 11-55 0-198 0-397 0-595 0-16-2-32-7-47-10-32-31-59-58-78-24-17-55-27-85-27-229 0-457 0-685 0-30 0-59 9-84 25-24 16-44 40-55 67-8 19-12 39-12 59 0 199 0 398 0 596 0 29 9 58 24 83 16 23 38 42 63 54 21 9 44 14 66 13 25 0 50 0 74 0 0 18 0 37 0 55m-140-158c-10-13-15-29-15-45 0-60 0-120 0-179 280 0 561 0 842 0 0 59 0 119 0 179 0 24-12 47-31 61-13 10-29 15-46 16-26 0-52 0-79 0 0-20 0-40 0-59 0-12-6-23-15-29-13-9-31-8-43 1-8 7-13 18-13 28 0 20 0 39 0 59-130 0-259 0-388 0 0-18 0-35 0-52 0-5 0-9-1-13-2-10-8-19-17-24-8-6-18-7-28-4-14 4-25 18-26 33 0 20 0 40 0 60-26 0-53 0-79 0-24 0-47-12-61-32m-15-296c0-116 0-232 0-347-1-24 10-47 28-61 14-12 31-18 49-18 228 0 456 0 684 0 6 0 13 0 20 2 18 4 34 14 45 29 10 13 16 30 16 47 0 116 0 232 0 348-281 0-562 0-842 0z" horiz-adv-x="1000" />

<glyph glyph-name="downloads" unicode="&#xe816;" d="M469 685c0 15 13 29 29 30 13 1 25-7 30-19 2-4 3-10 3-15 0-113 0-226 0-338 24 23 48 47 72 71 8 8 21 11 32 8 11-4 19-14 21-26 1-9-2-19-9-26-40-40-79-79-119-119-4-4-8-9-14-12-12-6-27-3-36 6-42 42-84 83-126 125-10 11-11 30-2 41 8 11 23 15 35 11 5-2 9-5 13-9 24-24 47-47 71-71 0 115 0 229 0 343z m-307-304c14 2 28-6 33-18 4-8 2-18 3-26 3-65 27-128 68-178 39-48 93-83 153-100 27-7 55-11 82-11 17 0 31-15 30-31 0-16-13-31-29-31-71-1-142 20-201 59-52 34-95 81-124 136-26 49-40 104-41 159 0 8-1 16 2 23 4 9 14 17 24 18z m667 0c13 2 27-5 32-17 2-5 3-10 3-14 0-58-14-116-40-167-22-43-53-81-90-112-5-4-10-9-17-11-12-4-27 1-34 12-8 10-8 25-1 36 3 5 8 8 13 12 39 33 70 77 88 126 13 33 19 69 19 105 0 15 12 29 27 30z" horiz-adv-x="1000" />

<glyph glyph-name="edit" unicode="&#xe817;" d="M468 519c61 60 121 121 181 181 67-67 134-133 201-200-167-167-333-333-500-500-67 0-133 0-200 0 0 67 0 134 0 201 106 106 212 212 318 318m101 12c37-37 74-74 112-112 26 27 53 53 80 80 1 1-1 2-1 3-37 36-74 73-111 110-26-27-53-54-80-81m-354-354c-1-1-3-2-3-4 0-36 0-73 0-110 37 0 75 0 112 0 104 104 208 208 312 312-37 37-74 75-111 112-104-103-207-207-310-310z" horiz-adv-x="1000" />

<glyph glyph-name="favorites" unicode="&#xe818;" d="M212 720c34 15 72 22 110 20 49-3 97-22 138-49 14-10 27-20 40-31 24 22 52 41 82 55 30 14 63 23 96 24 41 3 83-6 120-24 51-25 93-68 118-119 14-26 23-54 28-82 5-31 5-63 1-94-5-45-19-88-40-128-18-34-41-65-67-94-28-32-60-60-94-88-30-25-62-49-94-73-21-17-42-34-65-48-22-14-47-25-73-28-22-3-44 2-64 10-25 11-48 27-70 43-22 17-43 34-65 51-21 16-42 32-62 49-12 10-14 30-4 43 10 13 31 16 44 5 28-23 57-45 86-68 23-17 45-36 70-51 13-9 28-17 44-19 13-3 27 1 38 6 25 11 46 27 67 43 36 29 72 56 108 85 35 28 68 59 97 93 18 21 35 44 48 70 28 51 40 110 35 167-3 32-13 63-29 91-16 26-37 49-62 67-28 19-61 30-95 31-33 2-66-7-96-22-21-10-40-24-57-39 20-21 40-41 61-61 6-7 9-17 8-26-1-11-9-21-19-25-9-4-20-3-28 2-4 2-7 5-9 8-27 27-54 54-81 80-24 26-53 49-85 64-29 13-60 20-91 19-30-1-60-10-85-26-30-18-55-44-72-74-17-29-27-63-29-97-3-56 10-113 37-162 4-8 6-18 3-26-4-11-13-19-23-21-11-2-22 1-29 9-5 4-7 10-10 16-31 59-45 125-40 191 5 66 32 129 78 176 23 24 51 43 81 57z" horiz-adv-x="1000" />

<glyph glyph-name="location" unicode="&#xe81a;" d="M483 850l43 0c30-2 60-6 90-14 33-9 64-23 93-41 53-33 95-81 122-136 30-58 44-124 44-189 0-58-14-114-34-168-18-48-41-93-66-138-22-37-45-73-70-108-43-61-90-120-139-176-8-10-19-18-30-24-11-5-23-7-34-4-13 2-24 9-34 17-6 5-11 12-17 18-75 87-151 174-214 270-36 57-69 117-90 181-14 45-23 91-22 138 1 41 8 81 22 119 22 62 61 118 111 161 47 42 104 72 165 85 20 5 40 8 60 9m-47-70c-60-14-116-46-158-90-44-46-75-105-86-167-6-36-6-72 0-108 7-37 19-73 34-107 16-36 35-71 57-105 35-57 76-110 119-161 33-41 68-80 102-120 2-3 5-6 8-8 2 2 4 3 5 5 61 70 118 142 168 219 32 49 61 100 84 153 22 50 39 104 42 159 3 37-1 75-10 111-8 33-21 64-39 93-15 25-34 48-57 67-25 20-53 36-83 47-35 13-72 19-109 20-26 1-52-2-77-8z m60-119c34 1 68-7 97-24 31-17 57-44 73-75 18-32 25-70 21-107-3-35-17-69-38-96-21-28-50-49-83-61-37-14-78-15-115-5-33 9-64 28-87 53-22 23-38 53-45 84-7 29-7 59-1 87 12 48 43 91 84 116 28 18 61 27 94 28m-8-61c-27-3-53-14-73-33-26-24-42-60-40-96 1-32 15-63 38-85 25-26 62-40 98-37 32 3 63 19 84 45 22 25 32 60 29 93-3 33-20 64-46 85-24 20-57 31-90 28z" horiz-adv-x="1000" />

<glyph glyph-name="logout" unicode="&#xe81b;" d="M493 776c14 3 28-4 35-16 2-5 3-11 3-17 0-55 0-110 0-165 0-16-14-30-30-30-17-1-32 13-32 29 0 57 0 113 0 170 0 14 11 27 24 29z m-146-71c13 3 27-3 34-14 5-9 6-20 1-29-3-8-9-13-16-16-53-23-100-58-135-103-35-43-59-96-69-150-13-72-4-148 29-214 14-29 32-56 53-80 11-12 10-33-3-43-12-11-32-10-43 1-42 47-74 105-90 166-24 86-18 180 17 263 24 58 62 110 110 151 28 24 59 45 93 60 6 3 13 6 19 8z m292 0c8 2 16 0 23-3 62-27 117-70 158-123 37-48 63-103 76-162 20-86 10-179-28-260-28-60-72-113-125-153-54-41-119-68-186-77-65-9-132-3-194 20-14 5-22 21-19 35 3 14 15 24 29 25 8 1 15-3 22-5 59-19 123-22 183-7 52 12 101 36 141 70 29 24 54 52 73 84 29 46 46 99 50 153 5 62-7 125-35 181-34 69-93 126-164 158-6 4-13 6-19 11-9 8-12 23-7 34 3 10 12 17 22 19z" horiz-adv-x="1000" />

<glyph glyph-name="mail" unicode="&#xe81c;" d="M175 672c5 1 11 1 16 1 207 0 414 0 622 0 16 0 32-4 46-13 29-16 47-48 47-81 0-153 0-306 0-459 0-21-8-42-22-59-17-21-43-33-70-33-209 0-418 0-628 0-20 0-40 7-56 19-19 15-32 36-35 60-2 8-1 17-1 26 0 149 0 298 0 447 0 22 8 44 23 61 14 17 35 28 58 31m-11-72c94-71 188-141 282-212 16-11 35-17 54-17 20 0 40 7 56 19 93 70 186 140 280 210-5 5-11 9-18 10-3 1-7 1-11 1-207 0-413 0-620 0-9 0-17-5-23-11m-8-73c0-135 0-271 0-406 0-16 14-31 30-31 205 0 410 0 615 0 6 0 12-1 18 1 11 2 21 11 23 22 2 6 1 12 1 18 0 132 0 264 0 396-74-55-148-111-223-167-10-8-20-16-31-23-15-11-33-19-52-24-36-9-76-4-109 13-11 5-20 12-30 20-80 60-161 121-242 181z" horiz-adv-x="1000" />

<glyph glyph-name="notifications" unicode="&#xe81d;" d="M364 766c51 26 109 36 166 30 63-6 123-32 170-73 47-41 82-96 99-156 6-21 10-44 12-66 2-20 1-40 1-61 1-19 5-38 13-56 5-10 11-20 17-29 13-21 27-43 41-64 13-22 22-47 23-73 1-35-9-70-31-98-18-24-43-41-71-50-29-8-58-15-87-21-12-31-31-60-55-83-4-3-8-7-12-10-7-5-18-7-27-4-7 3-14 8-18 16-5 9-4 22 2 31 2 5 7 8 11 12 9 8 16 16 23 26-94-12-189-12-282 0 16-24 39-43 65-55 30-15 65-20 99-16 13 3 28-3 34-15 4-8 5-17 2-25-2-9-9-16-18-19-5-2-10-2-15-3-52-6-106 6-150 33-43 26-76 66-93 112-21 4-42 9-63 15-14 3-28 7-41 13-27 12-50 32-64 57-19 32-26 71-18 107 3 17 10 34 19 49 15 23 29 45 44 68 18 26 28 58 27 89 1 12 0 24 1 37 1 42 10 84 26 123 3 5 6 12 10 16 11 10 28 11 39 3 12-8 17-25 11-38-15-34-23-70-24-107 0-12 0-24 0-36 0-40-12-80-33-114-12-19-24-38-36-56-8-13-17-25-21-39-11-35 3-76 33-96 12-9 28-12 42-16 145-38 298-44 445-18 28 5 57 11 85 18 11 3 22 5 32 10 20 10 34 28 41 48 8 20 7 43-1 63-3 7-7 13-11 19-14 22-29 45-43 67-17 26-28 57-32 87-3 23-1 46-2 68-1 41-12 82-32 118-27 50-71 91-124 113-40 17-85 22-128 16-25-4-50-12-73-23-15-7-34 0-40 14-8 15-2 34 12 42z" horiz-adv-x="1000" />

<glyph glyph-name="orders" unicode="&#xe81e;" d="M355 750c11 8 28 9 39 0 11-8 15-25 9-38-20-41-41-82-61-122 53 0 106 0 159 0 52 0 105 0 157 0-20 39-40 79-60 118-3 5-5 11-4 17 0 12 6 23 16 28 10 5 22 4 31-1 5-3 9-8 12-13 25-50 50-101 75-151 36-2 73-5 106-19 26-11 48-31 61-55 10-18 15-38 17-58 2-33-3-66-8-99-2-8-2-17-7-24-7-11-22-17-34-13-11 3-19 11-22 21-2 5-2 11-1 16 4 20 7 40 9 61 1 17 2 35-3 52-4 16-15 29-29 37-17 10-37 13-56 16 5-10 10-20 15-30 3-5 5-10 5-16 1-12-6-24-17-30-11-5-26-4-35 5-3 3-6 6-8 10-11 22-21 43-32 65-49 1-99 0-148 0-57 0-115 0-172 0-19 0-39 0-58 0-11-22-22-43-32-64-3-5-5-9-9-12-10-8-24-9-35-3-11 5-17 17-16 29 0 6 2 11 5 16 5 10 10 20 15 30-18-3-37-6-53-14-12-6-21-15-27-26-6-10-8-22-9-34-1-21 1-43 5-64 6-41 15-81 24-122 9-42 18-85 27-127 5-23 10-46 18-67 6-15 13-30 25-40 10-9 24-14 37-17 19-3 39-4 58-5 33-1 66 0 99 0 64 0 127 0 191 0 21 0 43 0 65 3 13 2 27 4 39 10 11 6 20 14 26 25 8 13 13 29 18 44 9 30 15 61 21 92 4 14 18 24 32 23 14 0 26-11 29-24 2-8-1-17-2-25-8-34-14-68-26-101-6-18-14-36-25-52-15-21-38-37-62-45-17-6-35-9-53-10-26-3-53-3-79-3-62 0-123 0-185 0-31 0-61 0-92 1-32 1-65 2-95 14-26 10-48 29-62 52-17 27-25 59-33 89-10 42-18 84-27 126-9 42-19 84-26 126-5 28-9 55-10 83 0 19 2 39 8 57 9 28 28 53 54 68 25 15 54 21 82 25 14 1 27 2 40 3 25 50 50 99 75 149 2 5 5 9 9 13z m-28-369c3 1 7 0 10 0 14 0 27 1 40 0 14 0 27-12 29-27 2-13-6-27-19-32-7-4-16-3-23-3-11 0-22 0-33 0-16 1-29 15-29 31-1 14 10 28 25 31z m166 0c2 0 4 0 7 0 55 0 111 0 167 0 15 0 29-12 30-27 2-13-5-26-17-32-5-2-10-3-15-3-52 0-104 0-156 0-8 0-17 0-24 4-13 6-19 23-15 36 3 11 12 20 23 22z m-79-125c56 1 112 0 168 1 9 0 19-4 25-11 7-9 9-21 5-32-3-9-12-17-22-19-4-1-8-1-13-1-53 0-107 0-161 0-13 0-26 9-29 22-3 9-2 19 3 26 5 8 14 14 24 14z" horiz-adv-x="1000" />

<glyph glyph-name="replay" unicode="&#xe81f;" d="M249 683c61 29 129 44 197 42 80-1 160-25 227-69 61-39 112-94 147-157 30-53 48-112 53-172 3-29 1-59 2-88 0-5-1-9 0-14 42 1 83 0 125 1l0 0c-24-25-49-49-73-73-59-59-118-118-177-178-10 10-20 20-30 30-73 73-147 147-220 220 41 0 83 0 125 0 0 21 0 42 0 63 0 44-10 88-28 128-27 61-76 114-135 146-37 20-77 33-119 37-40 3-80 0-118-11-63-19-120-57-160-109-31-40-52-88-60-138-2-8-3-16-3-24-1-2 0-3 0-4l-2 0c0-8 0-17 0-25l0 27c0 0 1 1 1 1 0 1 0 3 0 5 6 81 36 160 84 226 43 58 99 105 164 136z" horiz-adv-x="1000" />

<glyph glyph-name="search" unicode="&#xe820;" d="M267 719c58 32 127 43 193 34 62-8 120-34 167-75 48-41 83-96 100-157 20-71 15-150-15-218-12-27-28-52-46-74 75-76 151-152 227-228 5-4 9-9 11-16 5-13-1-29-12-36-10-6-23-7-33-1-4 3-8 7-11 10-76 76-151 151-226 226-47-38-105-63-166-71-44-5-90-1-133 12-59 17-113 53-153 100-41 48-67 108-74 171-8 67 6 136 38 194 31 55 77 100 133 129m126-26c-42-4-83-18-118-41-50-32-88-82-106-138-18-56-17-118 4-172 21-57 62-105 114-134 34-20 73-32 112-34 41-3 82 4 119 20 56 24 104 68 131 122 17 34 26 70 28 108 1 40-7 80-23 116-24 55-68 100-121 126-43 22-92 31-140 27z" horiz-adv-x="1000" />

<glyph glyph-name="star" unicode="&#xe821;" d="M494 849c13 1 26-2 37-9 15-9 26-22 36-36 20-26 36-55 52-83 18-31 35-63 53-94 8-15 17-30 32-39 14-9 31-12 48-16 43-11 87-20 131-31 23-6 47-13 69-23 13-7 26-15 35-26 8-11 12-25 12-39-1-23-11-43-23-61-18-27-39-52-60-77-21-25-42-50-64-75-8-11-17-21-24-33-5-9-8-20-8-31-1-13 0-26 1-39 5-48 10-95 13-143 2-24 3-49 0-74-2-15-5-31-15-44-9-14-24-23-40-25-10-1-19 0-29 1-23 5-44 13-65 22-37 15-72 31-107 48-16 7-32 14-48 21-11 4-23 7-36 6-13-1-26-7-39-12-42-20-85-40-127-58-23-10-47-20-71-25-12-3-24-4-36-3-15 2-30 11-39 23-8 11-13 24-15 37-3 21-3 42-2 64 2 45 7 90 11 135 2 18 4 36 5 54 0 12-1 24-5 35-6 14-15 25-25 37-25 29-51 59-76 89-12 15-25 30-36 46-13 17-24 34-32 53-6 15-8 31-4 47 4 14 13 26 25 34 16 12 35 19 53 26 35 11 71 19 106 27 22 5 44 10 66 15 12 3 25 6 36 11 9 4 17 10 23 18 7 9 13 19 19 29 15 27 30 55 46 82 14 25 28 50 44 74 8 12 17 25 27 36 12 13 28 24 46 26z" horiz-adv-x="1000" />

<glyph glyph-name="support" unicode="&#xe822;" d="M455 764c76 9 154-4 222-37 63-30 118-75 159-131 33-44 56-95 69-149 7-29 11-60 11-90 0-56 0-111 0-167 0-9 1-18-1-27-4-17-14-33-28-44-15-12-34-19-54-19 0-34-11-69-31-97-26-36-68-62-112-68-14-2-28-1-41-1-78 0-155 0-232 0 0 41 0 83 0 125 55 0 111 0 166 0 0-14 0-28 0-42 28 0 56 0 85 0 25 0 50 13 65 34 11 14 17 32 17 50 0 86 0 171 0 257 0 13 7 26 18 33 7 5 15 7 23 7 13 0 25 0 38 0-9 63-36 123-78 170-40 47-93 82-151 100-44 14-90 18-135 14-49-5-96-21-138-47-53-32-96-79-124-135-16-32-27-67-32-102 12 0 25 0 38 0 11 0 22-5 29-13 7-7 12-17 12-28 0-72 0-144 0-216 0-11-5-21-12-28-7-8-18-13-29-13-14 0-27 0-41 0-20 0-39 6-55 18-17 14-29 35-30 57 0 50 0 99 0 148 0 21 0 41 2 61 5 66 26 129 60 185 37 59 88 108 147 142 50 29 106 47 163 53z" horiz-adv-x="1000" />

<glyph glyph-name="tag" unicode="&#xe823;" d="M197 806c96 0 193 0 289 0 16 0 32-6 44-17 142-142 285-285 427-427 7-8 16-15 21-24 12-19 12-45 0-64-5-8-12-14-18-21-90-90-180-180-271-270-6-7-12-14-20-18-17-9-37-11-54-4-9 4-17 9-23 16-145 145-290 290-435 435-9 9-16 21-18 34-1 7-1 14-1 21 0 89 0 178 0 268 0 6 0 12 1 19 2 16 12 31 25 40 10 7 21 11 33 12m4-63c0-95 0-190 0-285-1-2 2-3 3-4 144-145 289-290 434-434 95 95 191 191 286 286-39 39-78 78-117 117-106 106-211 212-317 317-1 1-2 4-4 3-95 0-190 0-285 0z m-169-17c12 11 28 17 44 18 0-34 0-67 0-100 0-73 0-146 0-220 0-16 7-32 18-43 156-155 311-310 466-465-8-9-18-16-30-19-17-5-35-2-50 7-9 5-15 12-22 19-142 143-285 285-427 428-11 11-18 26-18 42 0 96 0 193 0 289 0 17 7 33 19 44z m318-45c22 1 45-5 63-19 17-12 29-31 35-52 5-19 3-40-4-58-8-18-20-33-37-44-17-11-38-16-59-14-21 2-42 11-57 26-16 16-26 37-28 58-2 22 4 44 16 62 16 23 43 39 71 41m3-63c-7-1-13-4-17-8-10-9-13-24-7-36 5-13 20-20 34-17 13 2 24 15 25 29 0 10-4 20-12 26-7 5-15 7-23 6z" horiz-adv-x="1000" />

<glyph glyph-name="tell" unicode="&#xe824;" d="M659 754c8 2 17 2 26 2 44 0 88 0 132 0 15 0 29 0 43-6 15-7 28-20 36-35 6-14 7-29 8-43 5-69 0-138-16-206-23-97-68-190-130-268-57-71-129-131-209-174-45-23-91-42-139-56-81-22-165-29-248-21-12 2-24 5-34 11-14 9-25 22-30 38-4 11-4 23-4 35 0 28 0 56 0 84 0 22-1 43 0 65 1 18 9 35 22 47 9 10 21 15 33 19 38 14 77 28 115 42 16 6 32 12 49 18 12 4 26 5 38 2 17-3 32-13 42-26 9-12 16-26 24-39 4-6 8-12 12-19 83 44 153 114 197 198-14 8-29 17-43 25-10 6-20 13-27 22-10 13-16 30-16 46 1 13 5 24 9 36 14 39 28 78 43 117 5 15 10 31 17 46 9 20 28 36 50 40m12-61c-2-1-4-2-5-5-3-5-5-11-7-16-17-47-34-94-51-141-1-5-3-10-5-15-1-4 0-7 3-9 6-5 13-8 19-12 18-11 36-22 53-32 4-2 7-4 10-7 7-7 11-17 9-27 0-5-3-10-5-15-25-53-59-103-101-145-46-47-101-86-161-114-10-4-22-3-31 3-4 2-7 6-10 11-14 23-28 46-42 69-2 5-6 11-12 9-15-4-29-10-43-15-40-15-80-29-120-44-4-1-8-3-12-5-4-3-3-9-4-13 0-28 0-55 0-83 0-22 0-44 1-66-1-5 2-10 7-11 8-1 17-1 25-2 103-7 206 12 299 56 52 24 100 55 143 93 85 73 149 169 183 275 26 81 35 167 26 252 0 5-4 9-9 9-6 1-13 1-20 1-43 0-86 0-129 0-4 0-8 0-11-1z" horiz-adv-x="1000" />

<glyph glyph-name="trash" unicode="&#xe825;" d="M408 756c10 1 19 0 29 0 48 0 96 0 144 0 31 0 61-17 78-43 7-11 10-23 15-36 2-7 4-15 9-22 9-14 26-24 43-24 43 0 87 0 130 0 14 0 28-13 29-27 2-14-7-28-19-33-5-2-9-2-14-2-233 0-466 0-699 0-5 0-10 0-15 1-8 2-16 8-20 15-4 8-5 18-2 26 5 12 17 21 30 20 41 0 82 0 123 0 6 0 13 1 19 2 15 5 28 17 34 32 4 12 7 23 12 35 12 30 42 52 74 56m-13-75c-4-5-5-11-7-16-4-12-7-23-13-34 83 0 166 0 249 0-6 14-10 29-15 43-3 8-10 15-18 18-7 3-14 2-21 2-50 0-99 0-149 0-10 0-20-5-26-13z m-187-154c14 3 29-4 35-17 2-3 3-7 3-12 7-94 13-188 19-282 2-25 3-50 6-75 2-21 4-42 8-62 4-16 9-32 21-44 8-10 21-16 34-19 18-5 36-7 55-8 34-2 67-1 101-1 32 0 64-1 96 0 17 1 35 1 52 3 14 2 28 4 40 10 13 5 23 14 30 26 8 13 11 27 14 42 5 24 7 49 9 74 1 17 2 34 3 51 2 16 18 29 34 27 16-1 30-17 28-33-2-37-4-75-9-112-5-31-12-63-30-89-17-24-42-41-70-49-18-6-38-9-57-10-28-3-57-3-85-3-31 0-62 0-92 0-32 0-63 0-95 4-28 3-57 9-82 25-22 15-39 38-49 63-8 22-12 46-15 69-5 40-7 80-10 120-6 90-12 180-18 270-1 14 10 29 24 32z m569-1c10 3 20 0 28-6 7-6 11-16 11-26-3-42-6-84-9-127-1-16-18-29-35-27-15 2-28 16-27 32 2 39 5 79 8 118 0 6 0 11 2 16 3 10 12 18 22 20z m-389-104c13 4 28-3 35-15 2-4 3-8 4-12 7-70 14-139 21-208 1-10-3-20-10-26-9-9-23-11-34-6-10 5-18 15-19 26-7 69-13 139-20 208-2 15 8 30 23 33z m209 0c14 4 28-3 35-15 3-6 4-13 3-19-7-69-14-138-21-207-1-9-5-17-12-22-9-7-23-9-33-3-9 5-15 13-17 23-1 5 0 9 1 14 6 66 13 131 19 197 1 5 1 10 3 14 4 9 13 16 22 18z" horiz-adv-x="1000" />

<glyph glyph-name="loop" unicode="&#xe826;" d="M498 850c-114 0-228-39-320-116l0 0c173 140 428 130 588-31 134-134 164-332 89-495-10-29-5-50 12-68 21-20 61-23 84 0 3 3 12 15 15 24 71 180 33 393-112 539-99 98-228 147-356 147z m-409-274c-14 0-29-5-39-16-3-3-13-15-15-24-71-180-34-393 112-539 185-185 479-195 676-31l0 0c-173-140-428-130-589 31-134 134-163 333-89 495 11 29 6 50-12 68-11 11-27 17-44 16z" horiz-adv-x="1001" />

<glyph glyph-name="user" unicode="&#xe827;" d="M485 735c33 3 67-5 96-22 27-17 49-42 62-71 15-34 17-73 6-108-8-27-24-53-46-72-23-20-52-34-83-38-34-4-69 3-98 20-28 16-51 41-64 70-12 25-16 53-14 80 3 32 16 62 37 86 26 31 64 51 104 55m7-62c-17-2-34-8-48-19-19-13-32-34-36-57-5-22-1-46 11-66 15-25 43-43 72-45 18-2 37 2 54 11 16 9 30 23 38 40 9 16 12 35 10 53-3 28-19 54-43 68-17 11-38 16-58 15z m-23-313c15 1 30 0 46 0 20 1 41-1 61-5 59-10 115-40 158-82 37-37 64-84 78-134 6-22 9-44 10-67 1-11 0-22 1-34 0-16-6-32-16-45-11-15-28-25-46-27-7-2-14-1-21-1-164 0-327 0-491 0-16 0-32 5-44 16-17 12-27 32-28 53 0 23 0 46 3 68 9 64 40 125 86 170 45 46 105 76 169 85 11 2 22 3 34 3m-9-63c-40-3-79-16-113-39-27-17-50-41-68-68-19-29-32-62-37-97-3-19-3-37-2-56-1-5 5-10 10-10 165 0 330 0 494 0 3 0 7 0 9 1 4 1 7 5 7 9 0 7 0 14 0 20 0 26-4 53-12 78-17 49-50 93-93 122-31 21-68 35-106 39-17 3-35 2-53 2-12 0-24 0-36-1z" horiz-adv-x="1000" />

<glyph glyph-name="blockquote" unicode="&#xe828;" d="M79 706c120 0 239 0 358 0 0-102 1-203 0-305 0-63-8-127-29-187-17-47-44-90-81-123-35-33-78-56-124-70-56-18-116-24-175-25-10 46-18 92-28 137l0 1c34 4 68 11 100 24 37 15 71 40 92 74 23 36 29 80 25 121-46 0-92 0-138 0 0 118 0 235 0 353z m562 0c120 0 239 0 359 0l0-309c-2-31-3-61-8-91-5-34-12-67-25-98-16-43-41-83-74-115-35-33-79-56-124-71-58-19-119-25-179-26-10 46-19 92-29 138 24 3 47 7 70 13 38 11 75 30 102 59 15 16 27 35 35 56 10 29 13 60 10 91-46 0-91 0-137 0 0 118 0 235 0 353z" horiz-adv-x="1000" />

<glyph glyph-name="cancel" unicode="&#xe829;" d="M243 631c10 2 22-1 29-9 76-76 152-152 228-227 76 75 152 151 227 227 7 6 15 10 24 9 12 0 24-9 28-21 4-11 1-24-7-32-76-76-152-152-228-228 75-74 149-149 224-224 4-3 7-7 9-11 5-9 5-20 0-29-3-7-10-13-17-15-12-4-25-1-33 8-76 75-151 151-227 227-76-75-151-151-226-226-7-7-15-11-25-11-11 0-22 7-27 18-5 9-4 20 1 29 2 4 6 7 9 10 74 75 149 150 224 224-76 76-152 152-228 228-8 7-11 19-8 29 2 12 11 21 23 24z" horiz-adv-x="1000" />

<glyph glyph-name="link" unicode="&#xe82a;" d="M611 721c39 11 82 8 119-8 30-12 56-32 76-58 21-27 35-60 39-95 5-45-7-92-34-129-8-11-17-21-27-31-27-26-53-52-79-78 2 27-1 54-8 80 15 15 29 29 44 44 8 8 17 17 23 27 20 31 24 71 13 105-9 30-31 56-59 72-30 16-66 19-98 9-18-6-34-16-48-29-39-38-78-77-117-116-22-23-36-55-36-88 0-31 12-62 33-85 16-17 37-30 60-36-16-16-33-32-49-49-32 16-59 40-78 70-17 27-27 59-28 91-2 35 6 70 23 100 9 15 20 30 33 42 38 38 76 77 114 115 23 23 53 39 84 47z m-109-249c11 11 23 23 34 35 32-15 60-40 78-70 18-27 27-59 29-91 2-36-7-72-25-103-9-14-18-27-30-38-37-37-73-74-110-110-8-8-16-16-25-23-30-22-66-35-103-36-34-2-68 6-98 22-32 17-58 44-75 75-17 31-25 67-23 102 3 38 17 75 41 105 9 12 20 22 30 32 24 23 46 47 70 69-2-27 1-54 8-80-15-14-29-29-44-43-9-9-18-19-24-30-19-31-24-71-12-105 11-31 34-58 63-72 30-15 65-17 96-6 18 6 34 16 47 29 36 37 73 73 109 109 6 6 12 12 16 18 20 25 30 58 26 90-4 31-19 60-42 80-14 12-30 21-48 26 3 6 7 11 12 15z" horiz-adv-x="1000" />

<glyph glyph-name="menu" unicode="&#xe82b;" d="M11 661c8 11 21 19 35 22 6 1 12 0 19 0 293 0 587 0 881 0 20 0 39-12 48-30 3-7 5-14 6-22l0-6c-1-8-3-15-6-22-9-18-28-30-48-31-297 0-595 0-892 0-16 1-33 9-43 22-6 9-10 19-11 30l0 7c1 11 4 21 11 30z m34-256c6 1 13 1 20 1 293 0 587 0 881 0 20 0 39-13 48-31 3-6 5-14 6-21l0-7c-1-6-2-13-5-19-6-15-20-27-37-31-9-3-18-2-27-2-290 0-580 0-870 0-5 0-10 0-15 1-15 2-28 11-36 23-6 8-9 17-10 27l0 8c1 11 5 21 11 30 8 11 21 18 34 21z m-26-291c10 9 23 14 36 14 292 0 584 0 876 0 9 0 17 1 26-1 16-4 31-16 38-31 3-6 4-13 5-19l0-8c-1-7-3-14-6-21-8-17-26-29-45-31-7 0-13 0-20 0-292 0-583 0-875 0-16 0-33 9-43 22-6 9-10 19-11 29l0 9c1 14 8 28 19 37z" horiz-adv-x="1000" />

<glyph glyph-name="time" unicode="&#xe82c;" d="M489 850l22 0c72-1 143-19 208-50 57-28 109-67 152-115 35-39 64-84 86-132 20-46 34-96 39-146 2-16 3-31 4-46l0-21c-1-18-2-36-4-53-9-72-34-141-72-202-35-55-80-103-133-141-71-51-154-83-241-91-13-2-26-2-40-3l-21 0c-20 1-40 2-60 5-48 7-95 21-139 41-52 24-100 58-141 98-46 45-84 100-109 160-25 59-39 122-40 186l0 21c1 59 13 118 35 172 24 62 61 119 108 167 47 49 105 88 168 113 57 23 117 36 178 37m-19-63c-53-4-105-17-153-40-58-26-109-65-150-113-43-50-74-110-90-173-23-86-18-179 13-262 23-63 61-120 109-166 45-42 98-75 155-95 89-32 187-33 277-5 63 20 121 54 169 100 49 46 87 103 110 166 32 86 36 182 11 270-15 52-39 101-71 143-41 55-95 100-156 130-69 35-147 50-224 45z m-22-132c9 8 23 10 34 5 8-4 15-12 17-22 1-4 1-8 1-13 0-106 0-213 0-319 67-39 135-77 202-116 8-4 14-12 15-20 2-10-1-21-8-28-9-10-25-13-37-6-73 41-146 83-219 125-10 5-16 16-16 27 0 114 0 228 0 343 0 9 4 18 11 24z" horiz-adv-x="1000" />

<glyph glyph-name="heart2" unicode="&#xe82d;" d="M205 716c37 18 78 26 119 23 51-3 100-23 141-52 12-8 24-17 35-27 25 22 53 42 84 56 32 14 67 23 102 24 41 1 81-9 117-28 51-26 91-70 116-121 13-27 22-57 26-87 4-29 3-58 0-87-6-46-21-91-44-132-19-34-42-65-69-94-29-31-60-59-93-85-33-27-67-52-101-79-20-16-41-31-63-44-24-14-51-24-79-23-29 1-56 13-80 28-28 17-53 38-79 58-53 41-107 82-155 130-46 47-86 101-109 164-15 41-22 86-21 130 1 40 10 80 27 117 25 56 70 103 126 129z" horiz-adv-x="1000" />

<glyph glyph-name="heart" unicode="&#xe82e;" d="M287 739c33 3 67-1 99-11 42-14 81-38 114-68 26 23 55 43 87 57 31 14 65 22 99 23 40 1 79-9 115-27 50-25 90-67 115-117 15-28 24-58 29-89 4-29 3-59 0-89-6-47-21-93-44-134-19-33-42-63-67-91-28-30-59-58-91-84-34-28-70-54-105-82-19-15-39-30-61-43-24-14-51-24-79-24-29 1-55 12-79 26-27 16-50 36-75 55-55 42-111 84-161 134-44 44-82 95-105 153-18 44-27 92-26 140 0 64 23 128 63 177 21 26 46 48 75 64 30 16 63 27 97 30m-56-80c-28-13-52-33-71-57-21-29-36-63-42-98-5-27-4-55 0-83 5-36 17-72 34-104 17-31 39-59 64-85 46-50 101-91 155-133 24-18 47-38 73-54 14-9 29-18 46-21 12-2 24 0 35 4 14 6 27 14 39 22 20 14 39 29 58 44 41 32 82 63 121 97 34 32 67 66 92 105 17 26 30 55 38 85 9 28 12 58 12 88-1 30-7 61-20 89-13 29-32 55-56 75-25 21-54 36-86 41-31 6-64 3-95-8-31-11-59-29-83-50 20-20 40-40 60-60 5-5 9-12 9-20 2-12-4-24-14-30-10-5-22-6-32-1-5 3-9 8-14 13-25 25-51 51-77 76-23 25-50 46-80 61-28 14-59 23-90 22-27 0-53-6-76-18z" horiz-adv-x="1000" />

<glyph glyph-name="wallet" unicode="&#xe82f;" d="M541 714c50 0 100 1 150-2 36-3 72-7 106-21 27-12 52-31 69-56 16-22 25-49 30-75 4-20 6-40 7-60 12-5 22-13 29-22 10-13 16-29 16-45 0-8 0-16 0-23-2-16-16-29-31-28-15-1-29 11-31 26-1 9 0 18-1 27 0 3-3 6-7 8-3 1-8 1-12 1-36 0-71 0-107 0-18 0-37-5-53-13-23-13-41-34-47-60-5-20-3-43 8-62 14-27 42-45 72-50 12-3 25-2 38-2 32 0 63 0 95 0 5 0 12 3 13 9 1 9 0 18 1 26 2 15 14 26 29 27 13 1 25-7 30-19 2-4 3-10 3-15 0-7 0-14 0-21-1-19-10-37-24-50-6-6-13-10-21-13-2-37-7-74-21-107-12-29-33-54-60-71-29-19-63-27-97-31-46-6-92-6-138-6-57 0-115 0-172 0-16 0-30 16-29 32-1 16 14 31 30 30 49 1 98 0 146 1 32-1 64 0 96 1 24 1 48 2 72 6 18 3 35 7 51 15 15 8 28 20 37 35 7 11 12 25 15 39 4 16 6 33 7 49-29 0-59 0-88 0-34 2-68 13-96 34-24 18-44 44-54 73-11 31-11 66 0 97 9 28 28 53 51 72 26 21 59 33 92 36 9 1 17 0 25 0 24 0 47 0 70 0-1 17-3 34-7 51-3 13-8 26-15 37-8 15-21 27-36 35-13 7-28 11-43 14-20 4-40 6-60 7-47 2-93 2-139 2-9 1-18 5-23 13-8 10-9 24-2 35 5 8 15 14 26 14z m-228 0c17 0 35 0 52 0 7 0 14 1 21-2 12-4 21-16 20-29 1-12-7-24-18-28-6-3-13-3-19-3-41 0-81 0-122-5-20-2-40-5-59-13-14-6-28-14-38-26-10-12-17-26-22-41-5-18-8-37-9-55-4-34-4-68-4-102 0-49 0-98 0-147 1-28 1-57 5-85 2-17 5-34 10-51 5-13 12-26 22-37 9-9 20-17 32-22 18-8 39-12 59-14 7-1 14-1 20-4 11-5 19-17 18-29 0-11-6-21-14-26-7-4-14-5-21-5-34 4-68 10-98 26-28 15-52 39-67 68-16 31-22 67-25 102-4 43-4 87-4 131 0 27 0 54 0 81 1 42 1 84 5 126 3 32 10 65 25 94 14 28 38 52 66 67 28 14 60 21 91 24 25 3 50 4 74 5z m-66-166c19 0 38 0 58 0 34 0 68 0 103 0 5 0 11 0 17-1 9-2 16-9 20-17 5-10 4-21-2-30-6-9-16-14-26-14-56 0-112 0-169 0-16 0-29 15-29 30-1 16 12 31 28 32z m495-157c10 2 22 0 31-6 10-6 17-17 18-29 2-12-2-25-11-34-8-9-21-14-33-13-12 1-24 7-31 18-8 10-10 23-6 35 4 15 17 26 32 29z" horiz-adv-x="1000" />

<glyph glyph-name="shopping-cart" unicode="&#xe830;" d="M89 747c7 12 21 20 35 20 8 0 15 0 23 0 23 0 46-9 63-25 17-15 28-37 31-59 2-19 4-37 6-55 19 7 40 11 60 12 31 2 62 2 93 2 132 0 264 0 397 0 11 0 22 0 34-2 28-4 53-21 68-45 11-16 17-34 18-52 1-19-4-38-12-54-34-63-67-126-101-189-9-18-18-36-29-53-8-14-18-26-30-36-11-9-24-16-38-20-13-5-28-6-42-7-20-1-39 0-58 0-78 0-157 0-236 0-19 0-37 0-56 2-17 2-34 6-50 13-16 8-30 20-40 34-9 13-15 28-19 43-5 18-7 37-10 56-4 39-9 79-13 119-8 74-16 147-25 221 0 5-4 10-10 11-11 1-22-1-32 1-13 3-24 12-29 24-6 12-5 27 2 39z m216-605c31 2 63-10 84-34 14-14 23-32 26-52 3-19 1-40-6-58-11-27-34-49-61-58-31-11-66-7-93 11-27 18-45 49-47 82-1 31 12 63 36 84 17 14 39 23 61 25z m375 0c27 2 55-7 75-25 19-16 31-38 35-62 4-23 0-49-13-69-14-25-38-43-66-50-20-4-42-3-62 5-17 6-33 18-44 33-19 23-26 55-20 84 5 26 21 50 43 66 15 10 33 17 52 18z" horiz-adv-x="1000" />

<glyph glyph-name="basket-1" unicode="&#xe831;" d="M379 746c11 7 24 10 37 10 56 0 113 0 169 0 27 0 53-17 64-41 22-1 44-1 64-7 27-9 52-27 68-51 8-12 14-25 18-39 5-16 10-33 14-49 8-30 16-59 24-88 27-13 48-36 59-64 13-30 12-63 9-95-6-43-17-86-27-129-10-39-19-78-31-117-9-29-19-59-40-83-11-12-24-22-39-29-16-8-33-13-51-15-22-4-44-4-67-5-49 0-98 0-147 0-35 0-70 0-106 0-30 0-61 0-92 2-21 2-41 5-61 12-24 9-45 25-59 46-12 16-20 34-27 53-11 33-19 66-27 99-3 9-1 19 4 26 7 10 19 15 30 14 12-2 23-11 26-23 6-24 12-48 19-72 5-17 10-34 18-49 6-11 13-21 23-28 13-8 28-12 42-14 22-3 45-3 67-3 75 0 150 0 225 0 32 0 64-1 95 1 18 1 35 2 52 8 12 4 24 12 31 23 9 12 15 26 20 41 7 21 13 44 19 66 10 42 21 84 30 126 4 19 8 38 11 58 1 16 2 32 0 48-2 12-7 23-15 32-10 12-24 19-38 23-21 5-43 7-64 9-45 2-91 2-136 2-55 0-111 0-166 0-47 0-93 0-140-2-25-1-50-3-74-9-16-5-31-12-41-25-10-13-13-30-14-46 0-16 2-31 4-47 1-5 1-11-1-16-4-13-16-22-30-22-14 0-28 11-30 26-3 18-5 37-5 56 0 20 3 41 11 60 11 27 32 49 58 62 10 36 20 72 30 108 4 16 9 32 16 48 13 30 38 54 69 67 23 10 49 10 73 11 7 13 17 24 29 31m34-53c-5-2-8-7-7-12 2-5 6-8 11-8 55 0 111 0 166 0 6 0 12 6 10 12 0 5-5 9-10 9-54 0-108 0-162 0-3 0-6 0-8-1m-96-42c-17-2-32-12-43-24-9-11-13-25-17-38-9-30-16-59-25-88 27 3 55 4 82 5 48 1 96 0 144 0 58 0 115 0 173 0 45 0 91 0 136-5-8 29-16 59-24 89-5 13-8 27-18 37-11 12-26 22-42 24-12 1-23 1-34 1-9-20-29-35-50-40-10-2-19-1-29-1-52 0-104 0-156 0-26 0-52 17-63 41-12 0-23 0-34-1z" horiz-adv-x="1000" />

<glyph glyph-name="clipboard" unicode="&#xe832;" d="M303 773c20 16 46 25 71 25 84 0 168 0 252 0 30 0 60-13 81-35 16-16 27-38 31-61 32-13 62-34 83-62 22-27 37-61 41-96 2-14 2-27 2-41 0-128 0-255 0-383 0-10 0-21 0-31-2-37-15-73-36-103-20-28-47-50-78-65-26-12-54-18-83-18-111 0-223 0-335 0-32 0-64 8-92 23-25 14-47 32-64 55-26 34-41 78-41 121 0 140 0 280 0 420 1 36 12 72 31 102 22 35 56 62 94 77 1 1 2 1 2 3 5 27 20 52 41 69m65-38c-10-1-20-5-27-12-10-8-16-20-18-32-2-15 3-30 12-41 10-11 25-18 40-18 83 0 167 0 250 0 12 0 24 4 33 12 11 9 18 22 19 35 1 14-4 28-12 38-10 12-25 19-40 19-82 0-164 0-245 0-4 0-8 0-12-1m-141-134c-19-24-30-54-29-85 0-135 0-270 0-405 0-8 0-16 1-24 3-32 18-63 42-86 25-22 58-35 91-36 109 0 219 0 329 0 8 0 15 0 23 2 27 3 53 15 73 33 22 20 37 47 42 76 3 10 3 21 3 32 0 135 0 271 0 407 0 20-4 41-13 59-12 27-34 49-60 63-3-8-7-15-13-22-17-23-44-39-72-44-13-2-26-1-39-2-77 0-154 0-230 0-18 0-35 4-51 12-23 12-43 32-54 56-17-8-32-21-43-36z m100-220c3 1 7 0 10 0 107 0 214 0 320 0 7 0 15 1 22-2 13-5 21-20 18-34-2-15-16-26-31-26-106 0-213 0-320 0-6 0-13 0-19 1-9 1-17 7-21 16-5 9-5 20 0 29 4 8 12 14 21 16z m0-167c3 1 6 1 9 1 83 0 166 0 249 0 16-1 30-16 29-32 0-16-14-31-30-31-83 0-166 0-249 0-10 0-20 4-26 12-8 10-9 24-3 35 4 8 12 14 21 15z" horiz-adv-x="1000" />

<glyph glyph-name="description" unicode="&#xe833;" d="M295 805c19 9 42 11 62 5 133-35 265-71 398-106 16-5 30-13 41-25 24-23 33-59 23-90-9-35-19-69-28-103 47-17 87-51 114-93 2-4 5-8 6-13 1-7-2-13-7-17-6-5-15-5-22-1-4 3-6 8-8 12-16 26-38 48-64 64-25 14-53 23-81 25-37 4-75-5-108-23-27-16-51-38-68-65-17-28-28-60-29-93-2-34 7-67 23-97 28-52 82-91 142-98 46-6 95 7 133 33 26 18 47 42 60 69 8 16 14 33 16 50 1 7 5 14 12 17 10 5 23-4 23-15 0-16-5-32-11-47-16-44-45-83-84-108 28-51 57-102 86-153 4-7 9-13 9-21 0-4-1-9-5-10-5-2-9-5-14-3-5 2-9 4-12 9-31 54-62 110-93 165-42-23-92-27-138-18-9-33-18-66-27-99-4-16-14-31-26-42-23-21-56-30-86-22-133 37-265 73-398 110-28 8-51 30-61 57-6 17-7 36-2 54 22 84 44 167 66 251 3 10 14 16 24 12 6-3 10-8 11-15 0-4-1-8-2-12-23-81-45-161-67-242-4-10-4-22-1-32 4-16 16-29 30-36 6-3 13-5 19-7 121-34 242-68 363-103 8-2 16-5 24-6 16-4 33 0 46 10 10 8 17 19 20 32 9 32 18 64 27 96-26 10-51 24-72 42-26 23-47 53-59 85-92 26-184 51-276 77-6 1-11 4-14 9-2 4-3 8-2 12 2 7 9 13 17 14 4 0 8-1 11-2 84-23 168-47 253-70-7 30-7 61 0 91-77 21-153 42-230 64-8 1-14 8-15 16-1 4 0 7 2 10 5 7 13 10 21 8 78-22 157-43 235-64 13 28 29 55 51 77-87 25-174 49-261 73-9 3-15 14-12 23 3 6 9 11 15 11 5 1 9-1 13-2 93-26 186-52 278-78 49 34 111 46 169 36 9 30 17 60 26 90 2 9 5 18 5 27 1 20-10 39-27 49-8 6-19 8-29 10-127 36-255 71-383 106-11 3-25 2-36-3-17-7-30-23-34-41-22-79-44-159-66-239-1-3-2-7-4-10-4-5-10-10-17-9-10 3-17 13-15 24 21 73 41 146 61 219 3 11 6 22 9 33 8 25 27 46 50 56z m29-150c5 1 10 0 14-2 119-32 237-65 356-98 9-3 15-13 12-22-2-7-9-12-16-12-4-1-8 1-11 2-119 33-237 65-355 98-7 2-13 9-13 16-2 8 5 15 13 18z m-154-213c13 4 25-12 21-24-4-8-15-13-23-10-9 4-12 14-10 22 2 5 6 10 12 12z m741-116c8 3 16-2 20-8 3-5 4-13 0-18-4-5-11-9-17-8-7 0-14 5-15 12-3 9 4 19 12 22z m-717-147c3 1 6 1 9 0 120-33 239-66 359-100 7-1 12-7 13-14 0-12-13-23-25-19-117 33-234 65-351 98-4 1-8 1-12 4-6 4-9 13-7 20 2 6 8 10 14 11z" horiz-adv-x="1000" />

<glyph glyph-name="dislike" unicode="&#xe834;" d="M844 797c12 2 24 1 35-5 13-7 22-20 26-34 1-7 1-14 1-21 0-143 0-286 0-429 0-11 0-22 0-34-1-15-14-28-30-29-16-1-31 13-33 29-13 151-26 302-39 453 0 11-3 21 0 31 4 19 21 35 40 39z m-421-31c14 1 29 1 43 1 54 0 107 0 161 0 11 0 22 1 32-2 23-6 42-25 49-48 3-8 3-17 4-25 10-122 21-243 31-365 1-11 3-22 1-33-3-15-11-30-23-40-22-19-44-38-65-57-24-20-46-42-62-69-14-24-25-50-32-77-7-26-14-52-20-78-4-14-13-25-25-32-12-7-27-9-40-6-11 3-22 7-31 14-12 8-21 21-25 36-5 19-8 38-7 58 1 19 5 37 8 55 7 47 15 93 22 139 3 15-6 31-20 37-5 2-11 3-17 3-71 0-142 0-213 0-25-1-49 14-60 35-8 14-11 30-8 46 9 55 19 110 28 165 5 26 12 52 24 76 24 52 64 96 113 125 40 24 86 38 132 42z" horiz-adv-x="1000" />

<glyph glyph-name="eye" unicode="&#xe835;" d="M486 642c42 1 83-5 123-17 62-20 118-54 167-95 53-45 98-98 134-157 6-10 8-23 5-34-2-8-8-15-12-22-28-44-61-84-98-120-35-34-74-64-117-87-47-26-99-44-153-50-39-4-79-1-118 9-63 15-121 46-173 86-58 46-108 101-148 163-4 6-8 12-11 19-4 12-2 26 5 36 38 61 86 117 142 163 42 34 88 63 139 82 37 13 76 22 115 24m-6-126c-45-5-87-30-114-66-21-29-33-64-33-99 0-34 10-67 29-94 19-28 47-50 78-62 34-13 72-15 106-5 31 9 58 27 79 50 20 23 33 50 38 80 7 35 2 72-14 104-15 30-40 56-70 73-30 16-65 23-99 19z m13-62c32 2 64-11 85-35 11-13 20-29 23-46 5-21 3-43-5-63-10-25-31-46-56-56-23-9-48-10-72-3-28 9-51 30-63 56-14 31-12 69 6 98 17 28 49 47 82 49z" horiz-adv-x="1000" />

<glyph glyph-name="like" unicode="&#xe836;" d="M504 767c10 1 19-1 28-4 16-5 31-16 40-31 7-11 9-24 11-37 3-20 3-41 0-61-9-57-19-114-28-171-2-14 6-29 19-35 5-3 11-4 16-4 73 0 145 0 217 0 14 0 28-5 39-13 21-15 32-42 28-67-9-52-18-104-27-157-3-16-6-33-11-49-18-58-55-109-104-145-42-32-94-52-147-58-20-2-40-1-59-1-57 0-113 0-170 0-18 0-35 8-47 20-12 12-19 27-20 43-11 131-23 261-34 392-1 18 5 37 17 51 4 5 9 9 14 13 15 13 30 26 45 39 25 21 49 43 68 69 8 12 15 25 21 38 7 16 13 33 18 50 7 27 13 53 20 80 6 20 26 36 46 38z m-387-313c13 4 29-3 36-15 3-6 3-13 4-20 13-153 26-307 40-461 1-17-6-33-19-44-11-9-26-13-40-11-17 2-33 14-40 30-3 7-4 14-4 22 0 156 0 312 0 469-1 13 9 27 23 30z" horiz-adv-x="1000" />

<glyph glyph-name="ordering" unicode="&#xe837;" d="M219 560c0 14 12 28 27 29 14 3 28-6 33-19 2-4 2-9 2-13 0-113 0-226 0-339 23 22 45 45 68 67 3 3 6 6 9 8 9 6 22 7 32 1 9-5 16-15 16-26 0-8-3-17-9-23-40-40-80-80-120-120-4-4-8-9-13-11-12-6-27-4-36 6-42 42-84 84-126 126-10 10-11 27-3 39 8 11 23 16 36 12 5-2 10-6 14-10 23-23 46-46 70-70 0 114 0 229 0 343z m318-12c15 0 29 0 43 0 99 0 198 0 296 0 17 0 31-15 30-32 0-15-14-30-30-30-18-1-36 0-54 0-93 0-187 0-280 0-16-1-31 13-32 29-1 16 11 31 27 33z m0-167c15 1 30 0 45 0 98 0 196 0 294 0 16 0 30-15 30-30 0-16-13-31-28-32-12 0-24 0-36 0-99 0-197 0-296 0-6 0-12 0-18 3-12 5-20 20-17 33 1 13 13 25 26 26z m-2-167c2 1 4 1 6 1 111 0 223 0 334 0 9 0 17-4 22-10 9-9 11-23 6-35-5-11-17-18-30-18-110 0-220 0-330 0-10 0-19 4-25 11-8 9-10 23-5 34 4 9 12 15 22 17z" horiz-adv-x="1000" />

<glyph glyph-name="timer" unicode="&#xe838;" d="M570 606c44 7 90 5 133-8 43-12 83-34 117-63 7 9 15 19 23 28-5 6-9 13-8 21 0 11 8 21 18 24 8 3 18 2 25-4 12-10 24-20 36-30 4-4 9-7 12-12 6-10 5-24-3-32-7-7-17-10-26-8-5 1-9 4-13 7-9-11-18-22-27-33 34-42 57-94 64-147 11-77-8-158-54-221-16-22-34-41-55-58-10-9-26-7-35 2-10 10-10 27-1 37 4 4 9 7 13 12 18 15 33 34 46 54 0 0-1 1-1 1 26 42 39 92 36 142-2 54-23 107-58 148-21 25-46 45-74 61-34 17-71 27-109 29-38 1-77-6-111-22-54-24-99-68-124-122-18-37-26-79-24-121 2-37 12-73 30-106 2-4 5-7 7-12 31-49 79-87 135-105 25-9 52-13 79-13 14 0 25-12 25-25 1-10-4-20-13-25-4-3-9-4-13-4-63 0-125 20-176 57-28 20-53 46-74 74-16 24-29 49-38 76-14 41-19 85-15 128 7 69 38 135 88 184 44 45 103 75 165 86z m46-104c12 2 25-5 29-16 2-5 2-10 2-15 0-46 0-93 0-139 0-5 0-11 0-16 1-8-2-16-8-21-5-5-9-8-14-12-38-29-76-58-113-87-3-2-5-4-8-5-10-4-21-3-29 4-8 7-11 19-8 30 2 5 6 9 10 12 38 29 75 58 113 88 1 1 3 1 3 3 0 48 0 95 0 142 0 4 0 7 1 11 2 11 11 20 22 21z m-496-47c3 0 5 0 7 0 54 0 108 0 162 0 13 1 25-11 26-24 2-15-11-30-26-29-54 0-108 0-162 0-14-1-26 11-27 24-1 13 8 26 20 29z m-45-119c5 1 9 1 13 1 52 0 104 0 157 0 13 0 24-11 25-24 2-15-10-30-25-30-54 0-108 0-162 0-13 0-25 10-27 22-3 13 6 28 19 31z m45-118c5 1 9 0 13 0 52 0 104 0 156 0 13 1 25-11 26-24 2-15-11-30-26-29-54-1-108-1-162 0-14-1-25 10-27 23-1 13 8 27 20 30z" horiz-adv-x="1000" />

<glyph glyph-name="description-1" unicode="&#xe839;" d="M387 797c55 1 111 1 167 1 47 0 94-1 141-4 36-3 72-8 106-19 27-9 52-24 73-43 18-18 33-39 44-63 11-26 18-55 22-85 7-54 7-109 8-163 0-51 0-102 0-153-1-45-1-89-6-134-4-35-10-70-24-103-12-27-31-52-54-71-22-19-49-31-77-39-36-10-74-14-111-16-48-3-95-3-143-3-52 0-105 0-157 1-32 1-64 2-95 5-31 4-61 9-90 20-24 10-47 23-66 42-21 20-37 45-47 73-13 33-18 68-21 103-4 45-4 90-5 135 0 57 0 114 1 170 0 42 1 85 6 126 5 38 13 75 32 109 17 32 45 58 77 75 32 17 69 25 105 30 38 4 76 6 114 6m39-62c-52 0-104 0-156-8-22-3-43-8-64-17-25-10-47-30-60-54-15-26-21-55-24-84-5-37-6-74-7-112 0-31 0-63 0-95 0-49-1-98 1-147 1-35 2-71 8-106 3-20 8-41 17-59 10-22 27-41 47-54 15-9 32-16 49-20 27-7 55-9 82-11 33-2 66-3 100-3 54-1 109-1 163 0 45 0 90 1 135 6 29 4 60 9 87 23 14 8 27 19 38 31 18 22 27 50 32 77 5 22 7 45 8 68 3 43 3 86 3 129 0 54 1 107 0 160-1 35-2 70-6 105-3 29-8 58-21 84-11 25-32 46-56 59-27 13-57 19-87 22-47 6-95 6-143 6-48 1-97 1-146 0z m-55-146c13 1 26 0 39 1 72 0 144 0 216 0 15 0 29-13 30-28 2-14-7-28-20-33-4-1-7-2-11-2-84 0-167 0-251 0-14 0-27 11-30 25-2 13 4 27 15 33 4 2 8 4 12 4z m-86-208c4 0 7 0 11 0 138 0 276 0 413 0 15 0 28-11 30-25 3-13-4-28-17-34-4-2-9-3-15-3-137 0-274 0-412 0-5 0-11 0-17 3-11 5-19 18-17 30 0 14 11 26 24 29z m128-208c53 0 106 0 159 0 8 0 16 1 24-3 12-5 20-19 18-32-1-15-15-27-30-27-56-1-112-1-168 0-16 0-30 14-30 30-1 16 12 31 27 32z" horiz-adv-x="1000" />

<glyph glyph-name="faq" unicode="&#xe83a;" d="M387 797c56 1 112 1 168 1 47 0 95-1 143-4 35-3 71-8 105-20 26-9 50-23 71-42 19-18 34-40 44-64 13-30 19-62 23-93 6-52 6-103 7-154 0-51 0-102 0-153-1-44-1-89-6-133-3-35-10-70-23-102-13-30-33-57-59-76-23-18-51-30-79-38-36-9-73-12-109-14-49-3-98-3-146-3-54 0-108 0-162 1-31 1-62 3-93 6-30 4-60 10-88 22-24 11-47 26-65 45-19 20-33 45-42 71-11 33-16 67-19 102-4 44-4 88-5 132 0 53 0 106 0 159 1 38 2 77 5 115 3 30 7 60 16 88 6 21 15 41 28 59 14 20 31 37 51 50 31 21 68 31 104 36 43 7 87 8 131 9m39-62c-49 0-98 0-147-6-30-4-61-11-88-26-15-9-28-21-38-35-9-12-15-26-20-41-9-29-13-60-15-91-3-39-3-77-3-115 0-51 0-102 0-153 0-44 1-89 6-133 3-28 8-56 20-82 8-16 18-31 32-42 18-17 42-26 66-32 31-8 62-10 94-12 32-2 64-2 96-2 51-1 102-1 153 0 46 0 93 1 138 6 29 4 59 10 85 24 25 13 45 36 56 62 13 31 17 66 20 100 4 46 4 93 4 140 0 53 1 106 0 160-1 35-2 70-5 105-4 30-9 60-22 87-12 25-32 46-57 58-26 13-55 19-84 22-45 5-89 6-134 6-52 1-105 1-157 0z m61-146c31 4 64-7 87-28 23-21 36-52 35-84 0-31-15-61-39-81-10-8-23-13-32-23-3-4-7-8-7-13 0-18 0-35 0-52 0-9-4-17-10-23-9-8-23-10-34-5-9 4-15 12-17 21-1 4-1 8-1 13 0 15 0 30 0 45-1 19 7 37 19 51 10 12 22 22 36 30 9 5 16 14 20 24 4 12 4 25-2 36-5 12-15 21-27 25-13 4-27 2-39-4-11-7-20-19-22-32-1-6 0-13-3-19-4-13-18-23-32-21-15 1-28 14-28 29-1 29 10 57 30 77 17 19 41 31 66 34z m5-365c10 2 22 0 30-5 10-6 16-16 19-26 2-11 0-23-6-33-6-9-16-15-26-17-11-3-23-1-32 6-9 6-16 16-18 27-2 10 0 22 6 31 6 9 16 15 27 17z" horiz-adv-x="1000" />

<glyph glyph-name="information" unicode="&#xe83b;" d="M387 797c56 1 112 1 168 1 47 0 94-1 142-4 36-3 72-8 106-20 26-9 50-23 71-42 19-18 33-40 44-63 12-29 19-59 23-90 6-52 6-105 7-158 0-47 0-95 0-142-1-46-1-92-5-139-4-35-9-70-23-102-12-31-31-58-56-79-24-19-52-32-81-39-36-10-73-13-110-15-47-3-95-3-143-3-51 0-102 0-154 1-32 1-64 2-95 5-31 4-61 9-90 20-23 9-44 21-62 38-21 19-37 42-48 67-13 31-19 65-23 99-4 42-5 84-6 127 0 48 0 96 0 144 0 39 1 79 3 119 1 31 4 63 11 95 5 25 13 49 26 72 18 31 45 57 77 73 33 17 69 25 106 29 37 4 74 6 112 6m39-62c-39 0-78 0-116-3-34-3-69-7-101-20-24-10-45-27-59-48-11-17-17-36-22-55-7-32-10-65-11-98-2-36-2-71-2-106 0-49 0-98 0-146 1-44 1-88 7-132 4-29 10-58 24-83 8-16 20-29 34-39 19-15 42-23 65-28 29-6 60-9 90-10 31-2 63-2 94-2 51-1 102-1 153 0 46 0 92 1 137 6 30 4 60 10 86 24 15 8 28 19 38 32 18 22 26 50 32 77 4 22 6 45 7 67 3 44 3 87 3 131 0 54 1 107 0 161-1 37-2 74-7 111-3 26-9 52-20 76-12 25-33 45-58 58-27 13-57 18-87 22-47 5-94 5-140 5-49 1-98 1-147 0z m-27-151c8 6 18 7 27 4 9-2 17-10 20-18 4-11 2-24-6-33-40-41-79-83-119-124-10-12-28-14-41-6-3 3-6 5-8 8-14 15-27 29-41 43-3 3-6 6-8 9-5 10-6 22-1 31 6 11 19 18 32 16 8 0 15-5 21-11 7-8 15-16 23-24 31 32 61 65 92 97 3 3 6 6 9 8z m136-78c2 0 5 0 7 0 69 0 137 0 206 0 5 0 11 0 15-3 12-5 20-19 18-32-1-15-15-27-30-27-70 0-140 0-210 0-15 0-29 13-30 28-2 15 9 31 24 34z m-141-218c7 7 16 11 25 10 12-1 23-10 27-21 4-11 1-25-8-33-40-42-79-83-119-125-11-11-31-11-43 0-16 17-33 35-49 52-11 12-11 32 1 43 11 12 32 12 43 1 9-9 18-19 27-28 32 34 64 68 96 101z m144-74c13 1 26 0 40 1 58 0 115 0 173 0 15 0 28-12 30-27 2-14-6-28-18-33-4-2-9-3-13-3-70 0-140 0-210 0-16 1-29 15-30 30-1 16 12 31 28 32z" horiz-adv-x="1000" />

<glyph glyph-name="mirror" unicode="&#xe83c;" d="M484 794c6 4 15 5 22 4 11-2 20-11 24-21 2-7 1-14 1-21 11 0 22 0 33 0 10 0 20-6 26-15 6-10 5-23-1-33-6-9-16-14-26-14-11 0-21 0-32 0 0-229 0-459 0-688 8 0 15 0 23 0 10 1 20-5 25-13 8-10 8-25 1-35-6-9-15-14-25-14-8 0-16 0-24 0 0-8 1-16-2-23-5-12-19-21-32-19-10 1-20 8-25 17-4 7-3 16-3 25-44 0-87-1-131 1-33 1-66 3-98 11-26 5-51 15-72 31-24 18-42 44-53 72-13 34-17 72-19 109-1 26-2 52-2 78-1 22 0 44 0 67 0 44 0 89 0 134 0 11 0 23 0 34 0 17 1 35 2 52 2 38 6 77 21 113 12 30 33 56 60 73 26 17 55 25 85 30 38 6 77 6 116 7 8 0 17 0 25 0 22 0 44 0 66 0 0 6-1 12 0 18 2 8 8 15 15 20z m197-39c6 2 13 1 19 1 33-1 66-2 98-11 8-2 16-7 20-14 6-11 5-25-2-35-7-9-19-14-31-12-32 9-66 9-99 10-8 0-16 3-21 9-8 8-11 22-7 33 4 9 13 17 23 19z m180-98c12 3 26-3 33-13 5-7 5-15 7-23 4-32 5-65 5-97 1-8-2-16-7-22-8-9-22-13-34-9-12 4-21 15-21 28-1 31-1 62-5 93-2 6-3 13-1 20 3 11 12 20 23 23z m7-229c14 3 28-3 35-16 2-4 3-9 3-15 0-34 0-69 0-103 0-8-3-17-9-22-9-10-23-12-35-7-11 5-18 16-18 28 0 32 0 64 0 96 0 6-1 12 1 18 3 11 13 19 23 21z m-1-229c13 3 28-3 35-14 3-6 4-12 4-18 0-33-1-66-7-98-2-8-3-16-8-23-8-11-23-15-36-10-13 5-22 20-20 34 7 28 8 58 8 87 1 7 0 15 2 22 4 10 12 17 22 20z m-92-185c10 2 21-1 28-8 9-8 13-20 9-31-3-11-12-20-23-23-36-7-74-8-110-8-15-1-29 12-31 26-3 14 5 29 18 34 8 4 17 2 25 3 28 0 57 1 84 7z" horiz-adv-x="1000" />

<glyph glyph-name="qr" unicode="&#xe83d;" d="M221 797c26 1 51 1 77 1 19 0 38 0 58-1 14-1 28-3 42-8 14-5 26-14 37-24 11-12 20-25 26-40 5-17 7-35 7-52 1-24 1-47 1-71 0-26 0-53-1-80 0-18-1-36-5-54-3-14-8-27-16-39-9-13-21-24-35-31-14-8-30-11-47-14-19-2-38-2-58-3-27 0-53 0-80 0-23 0-46 0-69 2-18 2-37 6-52 16-23 14-41 37-48 63-6 22-5 44-6 67 0 23 0 46 0 69 1 21 1 42 3 63 3 19 7 38 16 54 12 25 32 45 55 60 12 7 26 12 40 16 18 4 37 5 55 6m39-62c-23 0-47 0-70-3-10-2-21-4-30-10-13-8-24-19-32-32-5-9-8-19-9-29-2-13-3-25-4-38 0-21 0-42 0-64 0-20-1-40 1-60 0-10 1-20 6-29 6-11 17-21 29-23 14-3 28-3 42-3 34 0 68 0 102 0 22 0 44 0 66 3 10 2 20 4 28 10 7 6 10 14 12 22 4 14 4 29 5 43 1 30 0 60 0 89 0 24 1 47-1 71-1 9-1 19-6 27-5 9-12 17-21 21-11 4-23 4-34 5-28 1-56 0-84 0z m389 62c19 1 38 1 57 1 27 0 53 0 80-1 21-1 42-4 62-10 23-8 43-22 59-40 12-13 22-28 28-45 9-24 11-50 12-76 1-31 1-62 1-94 0-16 0-33-2-49-2-15-5-30-13-43-11-21-29-37-50-47-14-6-29-9-44-10-16-2-32-2-49-2-23 0-46 0-69 0-22 0-45 0-67 2-18 1-36 3-53 9-13 5-26 12-36 22-9 10-17 21-21 34-6 13-8 27-10 41-2 22-3 44-3 66 0 26 0 52 0 78 0 21 0 41 2 61 2 18 6 35 16 50 14 23 36 41 61 48 13 3 26 4 39 5m22-62c-14 0-28 0-42-3-10-2-19-10-26-19-5-7-7-17-8-26-1-17-1-35-1-52 0-28 0-55 0-83 0-21 0-43 3-64 2-10 4-21 12-29 8-8 20-10 30-12 22-3 44-3 66-3 27 0 55 0 83 0 15 0 30 0 45 1 10 1 20 2 29 7 10 7 18 16 20 28 3 16 3 33 3 50 0 31 1 61 0 92-1 18-2 36-7 53-3 11-9 20-16 28-6 8-14 15-23 20-11 6-23 8-35 10-19 2-38 2-56 2-26 1-51 1-77 0z m-426-93c15 0 29 0 44-1 11-2 20-10 22-21 2-9 1-18 2-27-1-11 0-22-2-33-1-10-9-18-18-21-7-1-14-1-20-1-11-1-22-1-33 0-6 0-14 1-20 5-4 4-8 8-10 14-2 9-1 17-2 26 1 12 0 23 1 35 1 7 5 14 11 18 7 5 17 5 25 6z m477 0c13 0 26 0 40-1 8 0 16-2 22-8 7-7 7-17 8-26 0-13 0-26-1-40 0-8-2-16-8-22-7-7-18-7-27-7-13-1-27-1-40 0-8 1-16 3-21 9-7 7-7 17-7 27 0 14-1 27 0 41 1 7 4 15 9 19 7 7 17 7 25 8z m-522-323c24 0 48 0 72 0 24 0 49 0 74-2 18-1 36-3 53-9 14-5 26-12 36-22 10-10 17-22 22-35 6-15 9-32 10-48 2-20 2-41 2-61 0-29 0-58 0-88 0-16 0-32-2-48-2-16-5-31-12-44-14-25-36-45-63-53-23-7-47-7-71-7-31 0-61 0-92 1-26 1-52 2-77 10-26 9-49 27-66 49-9 11-16 23-21 36-7 19-10 40-11 61-2 26-2 51-2 77 0 22 0 43 1 65 1 16 3 31 8 46 5 14 13 27 24 37 12 13 27 23 45 28 22 7 47 6 70 7m-31-64c-7 0-13-1-19-2-11-3-20-10-26-19-6-8-7-19-8-29-1-13-1-25-1-37 0-30-1-59 0-88 1-19 2-37 7-54 3-14 11-25 21-34 9-9 20-17 32-20 17-5 35-6 53-7 31-1 62 0 93 0 16 0 33 0 48 3 13 2 23 11 30 21 5 9 5 20 6 30 2 22 1 44 1 66 0 27 0 54 0 81 0 17-1 33-4 49-1 10-4 19-11 26-6 6-15 9-23 11-16 3-32 4-47 4-29 1-57 0-85 0-23 0-45 1-67-1z m438 56c21 7 42 7 64 8 40 0 80 0 121 0 0-21 0-42 0-63-31 0-62 0-93 0-16 0-33 0-50-1-8 0-15-1-23-3-9-3-16-9-22-17-6-8-7-18-9-28-2-21-1-43-1-65-21 0-42 0-63 0 0 19 0 39 1 59 1 17 3 34 10 50 6 17 18 31 31 42 10 8 22 14 34 18z m304 7c13 3 27-4 33-15 3-5 4-10 4-15 0-49 0-98 0-146-21 0-42 0-63 0 0 49 0 97 0 146 1 15 12 28 26 30z m-207-136c16 2 32 1 48 1 10 0 21 0 31-2 10-2 19-10 24-19 5-9 5-19 5-29 1-16 1-32 0-47 0-9-1-19-5-28-4-6-9-12-16-15-8-4-17-5-26-5-15-1-29-1-44 0-8 0-17 0-25 2-11 2-20 10-24 20-5 10-5 22-5 33 0 14 0 28 0 42 0 9 1 19 5 27 3 6 8 11 14 15 5 3 11 5 18 5z m-470-20c10 1 21 1 32 1 8-1 17 0 26-2 7-2 13-6 16-13 3-5 4-12 4-18 1-9 1-19 1-28-1-8 0-16-2-24-2-6-7-12-13-16-6-3-14-3-21-4-11 0-22 0-33 0-9 1-19 1-26 8-5 4-8 12-9 19-1 13-1 27-1 40 1 10 1 20 7 27 5 6 12 9 19 10z m651-104c21 0 42 1 63 0 0-20 1-40-2-61-6-47-48-88-95-93-20-2-41-2-61-2-27 0-54 0-82 0 0 21 0 42 0 63 37 0 73-1 109 0 11 0 22 0 33 2 14 5 25 15 31 28 3 6 3 14 4 22 1 13 0 27 0 41z m-354 0c21 0 42 0 63 0 0-40 0-80 0-121 0-3 0-7-1-11-2-9-9-18-18-22-11-4-24-2-33 6-7 5-11 14-11 24 0 41 0 83 0 124z" horiz-adv-x="1000" />

<glyph glyph-name="reviews" unicode="&#xe83e;" d="M342 797c60 1 120 1 180 1 52 0 105 1 157-1 34-1 69-4 102-12 18-5 35-12 50-21 25-14 46-33 64-55 16-20 28-41 36-65 10-32 13-65 15-99 3-54 2-108 2-162 0-43 1-87-2-130-2-21-5-43-11-64-8-25-21-49-38-70-27-34-63-61-104-76-33-12-69-14-104-15-15-1-30-1-45-2-7 0-14 0-21-4-5-4-9-10-13-16-14-22-26-44-40-66-10-17-27-29-45-34-23-7-50-4-70 9-11 7-20 16-26 27-11 18-22 37-33 55-5 8-10 16-16 23-5 4-11 5-17 6-15 1-31 1-46 2-34 1-68 2-101 12-25 7-48 20-69 36-36 27-64 65-80 107-11 33-13 68-14 103-1 49-1 98-1 146 0 43 0 85 3 127 2 34 7 68 20 99 8 22 22 41 37 59 17 20 38 37 61 50 28 15 60 22 92 26 25 3 51 4 77 4m39-62c-27 0-54 0-82-2-18-1-36-3-53-6-16-4-31-8-45-17-25-15-46-36-61-61-8-13-13-27-16-42-4-18-6-36-7-55-1-24-2-47-2-71 0-52 0-103 0-155 0-24 0-48 2-72 1-17 3-33 9-49 16-44 51-81 94-100 14-7 31-10 47-12 23-3 47-3 71-3 17-1 34-1 51-5 13-4 25-11 35-21 10-10 18-22 25-34 11-19 22-38 33-56 6-10 21-12 30-6 5 3 8 9 11 14 7 12 14 25 21 37 10 16 19 33 33 46 9 9 21 16 33 19 15 5 31 5 46 6 27 0 53 0 80 3 15 2 30 5 44 12 40 17 72 50 90 89 8 17 11 35 13 53 2 22 2 44 2 67 1 54 1 108 0 163 0 33 0 66-4 98-3 26-7 51-20 74-16 25-38 47-64 62-16 9-34 14-52 17-21 4-43 5-65 6-42 2-85 1-128 1-57 0-114 1-171 0z m-54-229c2 0 5 0 7 0 111 0 222 0 333 0 15 0 28-11 31-26 2-13-5-27-18-33-4-2-8-3-13-3-110 0-221 0-331 0-5 0-11 0-16 3-11 5-19 18-18 30 1 14 12 26 25 29z m0-146c2 0 5 0 7 0 76 0 152 0 229 0 8 0 16-3 22-9 9-9 11-23 6-34-4-11-15-19-27-19-76 0-151 0-226 0-4 0-8 0-12 1-9 2-18 9-22 18-4 11-2 24 6 33 5 5 11 9 17 10z" horiz-adv-x="1000" />

<glyph glyph-name="share" unicode="&#xe83f;" d="M637 747c32 12 68 13 99 0 29-11 54-33 70-60 15-27 20-60 15-91-6-30-22-59-46-79-25-21-57-32-89-31-41 0-81 20-106 53-62-44-124-87-187-131 18-36 18-80 0-116 63-43 125-87 187-131 17 23 42 40 69 48 31 9 65 7 95-7 30-13 55-39 68-70 14-32 15-69 2-102-12-29-33-54-61-69-27-16-60-21-91-15-29 6-55 20-74 42-17 18-29 42-34 66-3 16-3 33 0 49-46 33-93 65-140 98-20 14-40 28-60 42-24-19-54-29-85-28-32 0-65 13-89 35-20 18-35 42-41 68-6 24-5 50 3 73 7 22 20 43 38 59 22 21 52 33 82 35 33 2 66-8 92-28 29 20 58 40 87 61 38 26 76 53 113 79-6 32 1 66 18 94 15 25 38 45 65 56m41-54c-5 0-10-2-15-4-24-8-42-29-47-53-3-15-1-32 5-46 8-15 20-28 36-35 16-8 34-9 51-4 24 7 44 27 50 52 4 15 3 31-3 45-6 16-19 30-34 38-13 6-28 9-43 7m-419-271c-18-3-34-12-45-26-10-13-16-29-16-45 0-13 3-26 10-37 7-14 20-25 35-31 15-7 32-8 48-3 25 7 46 29 51 54 4 17 1 35-7 51-7 13-19 24-32 31-14 6-29 8-44 6m424-270c-6 0-12-1-17-3-23-7-42-26-49-50-4-15-3-32 3-47 6-16 18-29 33-37 19-10 42-12 62-3 17 7 32 21 39 38 8 18 8 38 1 56-6 15-17 29-32 37-12 7-26 10-40 9z" horiz-adv-x="1000" />

<glyph glyph-name="shop" unicode="&#xe840;" d="M221 791c20 6 41 7 61 7 58 0 117 0 175 0 77 0 154 0 231 0 20 0 40 0 60-1 60-5 114-50 131-107 4-14 7-28 10-41 9-45 18-89 27-134 3-13 4-28 4-42-1-34-13-68-35-94 0-52 0-104 0-156 0-43 0-85-4-127-3-33-9-66-24-95-14-28-36-52-64-67-27-15-58-22-90-26-40-5-81-5-122-6-49 0-98 0-147 0-28 0-57 0-85 2-29 1-58 3-86 10-24 5-47 13-67 27-24 16-44 39-56 66-13 30-19 63-22 96-3 43-3 86-3 130 0 48 0 97 0 146-14 17-24 36-29 57-7 23-8 48-3 71 10 50 20 100 30 150 3 16 7 32 13 47 17 41 53 73 95 87m57-56c-13 0-26 0-38-4-25-8-46-27-56-51-5-12-8-25-10-38-10-48-19-95-29-143-2-8-3-17-2-25 0-24 10-47 27-64 14-14 32-24 52-27 20-4 42-1 61 9 23 12 41 34 48 59 3 10 4 21 5 31 8 84 17 169 25 253-27 0-55 1-83 0m146 1c-8-82-16-164-24-246-3-33 12-67 38-87 24-20 58-26 88-18 17 4 33 13 45 26 21 21 32 51 29 80-8 81-16 163-24 245-51 0-101 0-152 0m215 0c9-89 18-178 26-267 1-10 4-21 8-30 12-26 35-47 62-54 28-8 60-3 83 15 24 17 39 46 39 76 1 12-2 24-5 37-8 42-17 85-25 128-3 13-6 26-10 38-12 27-37 48-65 54-11 2-21 2-32 2-27 1-54 0-81 1m-94-411c-35-10-73-8-106 6-28 11-53 30-71 55-20-29-49-50-83-60-35-11-74-9-108 5 0-26 0-52 0-79 0-41 0-82 2-123 1-20 3-40 7-59 3-15 7-30 15-44 8-15 20-28 34-36 13-8 27-12 41-15 29-7 59-8 89-9 0 37 0 74 0 112 0 18-1 37 1 56 2 14 7 28 15 40 10 14 24 26 40 33 17 7 37 7 55 8 18 0 36 0 53-1 18 0 37-1 53-9 16-7 30-20 40-35 6-11 10-23 12-35 1-15 1-29 1-44 0-42 0-83 0-125 27 1 53 2 79 7 16 2 32 7 46 14 15 8 27 20 36 34 7 11 12 23 15 35 4 16 6 32 8 47 2 25 3 49 3 74 1 51 1 103 1 154-38-16-82-16-120-1-28 11-53 31-71 56-21-29-53-51-87-61m-96-175c-7-1-12-6-16-11-4-5-4-12-5-19-1-17-1-35-1-52 0-35 0-69 0-103 49-1 97 0 146 0 0 48 0 95 0 143-1 9-1 18-3 26-3 6-8 12-14 15-6 2-13 2-20 3-18 0-37 0-56 0-11 0-21 0-31-2z" horiz-adv-x="1000" />

<glyph glyph-name="video" unicode="&#xe841;" d="M211 707c38 6 75 7 113 7 38 1 76 1 113 1 43-1 87-1 129-6 34-5 67-14 95-34 23-18 43-40 55-66 15-33 19-70 21-105 27 13 54 27 83 37 16 5 34 9 51 7 17-2 34-9 46-21 8-9 15-19 19-30 7-19 9-40 11-61 1-28 1-57 1-85 0-25 0-49-1-74 0-17-1-35-5-52-3-15-8-29-16-41-11-15-27-26-44-30-15-4-32-3-47 1-15 4-29 9-44 16-18 8-36 17-54 25-1-25-4-50-10-74-5-17-11-33-20-47-7-11-15-21-24-31-11-11-23-21-37-28-32-19-69-25-105-27-51-4-102-3-153-4-39 0-79 0-118 2-27 2-55 4-82 12-16 4-31 10-45 18-12 8-23 17-34 27-11 11-21 24-29 39-16 29-21 64-24 97-4 43-4 86-4 129 0 27 0 54 0 80 0 36 0 72 2 108 2 37 6 74 21 108 11 27 30 50 53 68 24 18 54 28 83 34m102-55c-24-1-48-2-72-4-16-2-33-5-48-11-11-4-22-9-30-17-12-10-22-21-28-34-8-14-12-30-14-46-3-21-5-43-5-64-2-52-1-104-1-156 0-42-1-84 2-125 2-19 4-38 9-57 3-15 10-29 20-41 9-12 21-22 35-29 14-7 29-11 44-13 19-4 38-5 58-6 35-1 70-1 105-1 38 0 76 0 113 1 27 1 55 2 81 9 16 3 32 9 45 20 9 7 17 16 24 26 10 15 16 33 19 51 5 26 6 53 6 80 1 39 1 78 1 117 0 44 1 87-1 131-1 22-3 45-7 67-3 16-8 33-18 46-7 10-15 19-24 26-13 10-27 16-42 20-18 4-37 6-56 8-40 2-81 2-122 2-32 0-63 0-94 0m510-177c-29-12-56-26-83-40 0-57 0-113 0-170 22-11 45-23 68-33 14-7 28-13 44-17 5-1 12-2 17 1 6 2 8 8 10 13 3 11 4 23 5 34 2 26 1 52 2 78-1 24 0 49-1 73 0 17-1 34-5 51-1 6-3 12-7 17-4 4-10 4-15 4-12-2-24-7-35-11z m-315 114c20 3 40-1 58-11 23-12 40-34 46-59 5-22 3-45-7-65-12-24-34-42-60-49-21-6-45-3-65 7-23 11-41 31-49 56-6 21-5 45 4 66 13 29 41 51 73 55m8-62c-8-1-15-6-19-11-10-12-10-29 0-40 9-11 25-14 37-8 13 6 21 21 17 35-3 15-19 27-35 24z" horiz-adv-x="1000" />

<glyph glyph-name="bel" unicode="&#xe842;" d="M374 771c44 20 93 29 141 27 60-3 118-24 166-60 45-33 81-79 104-130 14-33 23-68 26-104 2-19 1-38 2-56-1-30 7-59 23-84 12-18 23-36 34-53 8-13 17-25 23-38 13-29 17-62 10-93-6-29-21-57-42-77-12-11-26-21-41-27-11-5-23-8-35-11-22-6-45-12-68-16-11-30-29-58-52-80-5-5-10-11-17-15-13-7-31-3-40 9-9 12-7 31 4 42 11 9 21 20 29 31-93-12-188-12-282 0 16-23 38-41 63-53 28-15 61-21 93-18 8 1 15 3 23 1 13-4 23-17 23-31 0-11-6-22-16-27-5-3-9-4-14-4-43-5-87 0-126 18-56 23-101 70-122 127-20 4-39 8-58 13-13 3-26 6-38 11-26 10-49 28-66 51-18 26-28 59-27 91 0 21 5 41 14 60 5 11 13 21 19 32 12 17 23 35 34 52 13 20 22 42 25 64 2 16 1 33 2 49-1 48 9 95 29 139 3 8 9 14 16 18 12 5 26 2 35-7 9-8 12-23 7-35-13-26-21-55-24-84-2-22-1-43-1-65-1-37-12-74-32-106-13-21-27-41-40-62-6-9-12-18-16-28-11-28-6-61 13-85 10-13 23-23 39-27 135-39 278-50 417-32 52 7 104 17 154 31 15 5 29 14 38 25 16 18 23 43 20 66-1 13-6 26-13 37-12 20-25 39-37 58-6 9-12 18-17 28-15 28-24 60-26 92 0 21 1 41-1 62-4 58-29 115-68 158-21 23-46 42-74 56-33 16-70 25-107 24-37 1-74-8-107-25-14-6-31-1-39 11-9 12-7 30 4 40 4 5 10 7 16 10z" horiz-adv-x="1000" />

<glyph glyph-name="bolt" unicode="&#xe843;" d="M505 797c16 3 32-1 45-9 10-6 18-15 24-25 8-13 12-27 15-42 4-22 5-45 6-67 1-48 0-96 1-143 0-11 0-23 2-33 1-5 2-10 7-12 5-3 12-3 19-4 17-1 34-1 51-1 26 0 52 0 78-1 19-1 38-3 55-8 13-3 24-9 34-18 13-11 22-29 23-47 0-13-3-27-8-39-9-21-23-41-36-60-9-12-18-24-27-36-4-6-8-12-14-16-12-7-28-5-38 5-11 10-13 28-4 40 16 22 33 43 47 66 6 10 12 20 16 30 1 4 2 8-1 11-3 3-8 4-12 5-12 3-25 4-37 4-26 2-51 1-77 1-20 1-39 0-59 2-15 2-30 5-43 13-15 9-26 22-31 38-7 19-7 39-8 58 0 47 1 94-1 141 0 19-1 37-4 56-2 8-3 17-7 25-1 2-3 5-6 4-5-1-10-4-14-7-12-10-22-21-32-32-20-25-39-50-58-76-43-58-86-116-129-174-18-25-37-49-55-74-8-13-17-26-24-40-2-5-5-10-5-16 0-3 3-5 5-6 8-3 16-4 24-5 18-3 36-3 55-3 26-1 52 0 78-1 19 0 37-1 55-7 15-6 29-17 37-30 9-14 12-29 13-45 2-19 2-38 2-58 0-37 0-75 1-113 1-18 1-36 4-54 2-8 3-17 7-25 2-2 3-5 6-4 4 0 7 3 11 5 8 6 16 14 23 21 15 17 29 35 43 52 15 20 30 41 45 61 4 5 8 11 14 14 11 7 27 5 37-5 9-8 12-22 8-33-2-6-6-10-9-14-21-29-42-57-64-85-11-14-23-28-36-41-13-13-28-25-46-32-14-6-30-8-44-4-14 4-27 13-36 24-11 15-16 33-19 50-5 28-6 56-7 84-1 28-1 56-1 84 0 20 1 40 0 60-1 7-1 15-4 23-1 3-5 6-9 7-9 2-18 2-27 3-45 1-90-1-134 2-18 2-37 5-53 13-14 6-26 16-33 29-7 13-10 28-8 42 2 18 10 35 19 50 14 24 31 46 47 68 50 68 101 136 151 204 24 33 48 66 75 96 12 13 24 26 38 36 12 9 25 16 39 18z" horiz-adv-x="1000" />

<glyph glyph-name="flag" unicode="&#xe844;" d="M198 796c11 4 25 1 33-8 5-5 9-13 9-21 0-15 0-30 0-45 23 4 46 9 70 13 71 14 147 7 214-19 12-5 24-10 37-14 48-15 101-17 150-6 7 1 14 3 22 4 19 2 38-3 54-13 18-12 31-32 35-54 1-8 1-17 1-25 0-99 0-197 0-296 0-26-12-51-32-68-11-10-26-17-41-20-74-19-154-16-227 9-14 5-28 11-42 15-42 13-85 18-128 14-15-1-30-4-45-7-23-5-45-9-68-14 0-98 0-197 0-296-1-6 0-13-1-20-3-8-9-16-17-20-9-4-21-4-30 1-9 6-15 16-15 27 0 151 0 303 0 454 0 4 0 8 1 12 2 10 9 18 18 21 10 5 24 3 33-5 7-5 11-14 11-23 0-29 0-58 0-87 23 4 46 9 70 14 71 13 147 6 215-20 31-13 64-21 98-24 40-3 81 1 119 12 11 3 19 14 18 26 0 102 1 204 0 307 1 11-12 21-23 18-71-18-148-14-217 12-13 5-26 11-39 15-49 15-101 19-151 11-8-2-16-3-24-5-22-4-44-9-66-13 0-33 0-66 0-100 0-8-4-17-11-23-8-8-22-10-33-5-9 3-16 12-18 22-1 4-1 8-1 12 0 66 0 132 0 198 0 4 0 8 1 13 3 9 10 18 20 21z" horiz-adv-x="1000" />

<glyph glyph-name="medal-ribbon" unicode="&#xe845;" d="M390 779c75 27 161 25 235-6 56-23 104-63 139-112 35-49 56-109 59-169 3-59-11-119-39-170-16-31-38-58-63-82 3-5 4-10 5-15 11-41 23-82 34-124 6-21 11-42 16-63 3-18 6-36 5-54-1-14-4-28-11-40-9-14-22-26-36-34-13-7-28-9-42-8-19 2-37 9-55 16-37 17-72 37-109 55-9 4-18 9-27 9-13 0-23-6-34-11-21-11-43-23-65-34-20-10-40-20-62-27-17-6-35-10-53-7-14 3-28 10-39 20-11 9-20 22-24 36-6 15-6 32-4 49 2 19 6 39 11 58 9 35 19 70 28 105 6 20 11 41 17 62 1 2 2 5 3 7-41 38-72 88-88 142-21 70-18 147 10 214 5 13 20 21 33 18 13-1 24-12 26-25 1-6 0-13-2-18-21-53-24-112-9-167 15-52 47-100 90-134 24-19 52-33 81-43 39-12 80-16 121-9 56 8 108 36 147 77 21 22 39 48 51 77 27 62 29 134 4 197-20 53-58 98-105 127-28 17-59 29-91 35-44 8-91 5-133-10-8-3-15-7-22-6-14-1-27 9-30 22-4 11 0 24 9 32 5 5 12 7 19 10m-58-580c-6-21-12-41-17-62-10-34-19-67-27-101-3-14-6-29-7-45 0-5 0-12 4-16 3-5 7-8 12-10 6-1 11 0 17 2 13 4 26 9 38 15 23 11 46 23 69 35 14 7 27 15 41 20 15 6 31 8 47 7 14-1 28-6 40-12 16-7 31-15 46-23 18-10 37-19 56-28 13-6 26-12 41-15 4-1 10-3 14 0 6 4 12 10 12 17 2 10 0 19-1 29-3 20-8 39-14 59-11 43-23 86-35 128-18-11-38-20-58-28-61-22-128-25-191-9-31 8-60 21-87 37z" horiz-adv-x="1000" />

<glyph glyph-name="medal-ribbons" unicode="&#xe846;" d="M389 779c75 27 159 25 233-5 56-23 105-62 141-111 34-47 54-103 59-161 4-47-3-95-19-138 28-30 56-59 84-88 12-11 23-23 34-35 8-9 16-18 21-30 7-18 8-39 2-57-6-16-16-30-30-39-10-7-22-10-34-12-18-3-37-4-56-7-12-1-22-12-23-24-3-24-4-48-9-71-6-28-30-50-57-56-19-4-39 0-55 9-13 9-24 20-34 31-49 50-97 100-146 151-48-50-96-100-144-150-10-9-18-19-29-27-21-17-53-20-78-8-16 7-29 20-36 36-6 13-7 28-9 42-2 15-3 29-5 44-1 11-11 22-23 23-19 3-37 4-55 7-10 1-20 4-30 8-12 7-23 18-29 31-15 26-13 61 6 85 7 10 16 19 24 28 35 36 70 72 105 109-28 74-26 159 4 232 5 14 21 21 35 18 13-3 24-15 24-29 1-5 0-10-2-14-22-54-24-116-7-171 15-53 48-100 92-133 25-19 54-33 85-42 38-11 80-13 120-6 55 10 106 39 144 80 21 23 38 50 50 79 25 63 25 135-1 197-22 51-60 96-108 124-28 17-59 28-90 33-47 8-95 3-139-15-9-4-19-3-27 1-10 6-17 17-17 29 0 9 5 18 13 24 5 4 11 5 16 8m-236-550c-10-12-21-23-31-34-3-3-6-7-7-11-1-5 0-12 4-16 2-2 5-2 8-3 13-2 26-3 39-5 14-1 29-2 43-9 27-12 47-38 52-68 3-20 4-41 7-62 0-3 1-6 2-8 2-5 8-8 14-6 4 0 7 3 10 6 11 10 21 22 32 32 36 38 73 76 109 114-28 5-55 15-81 28-52 26-97 67-128 117-24-25-48-50-73-75m560 3c-42-37-94-62-148-73 34-36 69-72 103-108 12-11 22-23 34-34 3-3 7-6 10-9 6-3 13-2 17 3 2 2 2 6 3 9 2 14 3 27 5 41 1 10 2 21 5 32 8 32 36 59 69 64 22 4 44 5 65 9 5 0 8 5 9 9 1 5 1 10-2 14-5 6-10 12-15 17-31 33-63 65-94 98-17-27-37-51-61-72z m-231 396c13 5 28 4 40-3 11-6 19-16 26-26 8-13 14-25 21-38 17-4 34-7 50-12 12-5 23-12 30-23 7-11 9-26 5-39-3-13-12-24-21-35-7-9-14-17-22-26 2-14 3-29 4-43 1-13 0-26-5-37-6-14-19-24-33-26-12-3-25 0-37 5-13 5-27 11-40 17-15-6-29-13-44-19-12-4-25-6-37-2-14 4-26 15-31 29-5 16-3 33-2 49 1 9 2 18 3 27-11 13-22 25-31 38-7 9-13 21-14 33-1 15 5 30 16 40 11 9 25 13 38 17 11 2 22 5 33 7 8 14 15 28 24 42 7 10 16 20 27 25z" horiz-adv-x="1000" />

<glyph glyph-name="medal-ribbon-star" unicode="&#xe847;" d="M385 777c74 28 158 28 232-1 56-21 106-59 142-108 34-45 55-99 62-156 7-61-4-124-31-180-17-34-41-66-69-92 3-5 4-9 5-14 11-41 23-82 34-124 5-20 11-41 15-61 4-18 7-37 6-56 0-14-4-29-11-41-8-13-20-25-34-32-12-7-26-10-39-10-20 1-38 7-56 15-39 16-76 37-113 56-9 4-18 9-28 9-10 0-18-4-27-8-18-9-36-19-54-28-22-12-44-23-67-32-16-6-34-12-51-12-13 0-25 3-36 9-14 8-26 20-35 33-7 13-11 28-11 43-1 22 4 44 9 66 7 33 17 66 26 99 6 23 12 45 19 68 2 7 3 14 6 20-41 38-72 88-88 142-21 70-18 147 10 214 5 14 21 21 35 18 13-3 23-14 24-28 1-5 0-10-2-15-21-51-24-109-10-162 14-53 45-102 88-136 25-20 53-36 83-45 38-13 79-16 119-11 58 9 113 38 153 81 38 41 63 95 68 151 4 41-1 84-17 122-19 50-54 92-99 121-26 18-56 31-88 38-50 10-103 6-151-13-6-2-12-3-18-2-11 2-20 10-24 20-4 11-1 24 6 32 5 5 11 8 17 10m-53-578c-13-46-26-92-38-138-5-21-11-42-12-63-1-7-1-14 1-21 3-5 8-10 14-12 8-1 14 1 21 3 21 7 41 18 61 28 22 11 43 22 65 33 13 7 27 13 42 14 18 3 36 1 52-6 20-8 38-18 57-28 18-10 37-19 56-28 13-6 26-12 41-15 4-1 10-3 14 0 6 4 12 10 12 17 2 10 0 19-1 29-3 20-8 39-14 59-11 43-23 86-35 128-17-10-36-19-55-27-64-23-135-26-201-8-28 8-55 20-80 35z m149 428c13 6 28 6 41-1 10-6 18-15 24-25 9-13 16-27 23-40 17-4 34-7 50-12 12-5 24-12 31-24 6-11 8-25 4-38-3-13-12-24-21-35-7-8-14-17-22-26 2-19 5-38 4-58-1-14-6-28-16-37-9-8-21-13-33-12-15 0-28 6-42 12-8 4-16 8-24 11-14-6-28-13-43-18-11-5-24-7-37-4-14 4-26 15-31 29-6 15-4 31-3 47 1 10 2 20 3 30-11 13-22 25-31 38-7 9-13 21-14 33-1 15 5 30 16 40 11 9 24 13 37 16 11 3 23 6 34 8 8 14 15 29 24 42 7 10 15 19 26 24z" horiz-adv-x="1000" />

<glyph glyph-name="pin" unicode="&#xe848;" d="M372 638c18 9 40 13 60 11 21-2 40-12 56-24 11-8 15-23 11-35-3-9-10-16-18-19-10-4-21-3-29 3-6 4-12 8-18 11-10 4-22 2-32-2-10-5-16-14-21-23-8-13-14-27-20-41-9-21-18-42-26-63-5-12-9-24-15-35-12-26-35-46-62-56-18-6-36-10-54-16-9-2-18-5-26-9-4-1-6-7-3-10 9-12 19-21 29-31 49-49 98-99 147-148 8-7 16-15 25-22 2-2 6-1 8 1 3 4 4 9 6 14 7 19 11 39 17 58 4 11 8 22 14 31 8 13 18 25 30 33 14 10 30 16 46 22 30 12 60 23 89 37 12 6 25 13 35 22 8 7 11 18 11 28 1 11-5 21-11 30-9 12-19 23-29 34-13 14-27 27-40 40-4 5-9 9-12 15-6 11-3 26 6 35 9 10 24 12 35 7 7-3 12-9 17-14 21-22 43-43 63-67 11-14 22-29 28-47 5-13 7-28 5-42-2-19-8-38-20-53-8-11-18-19-29-27-14-9-28-16-43-22-31-14-64-26-95-39-5-3-10-5-15-7-7-4-12-9-16-15-4-5-6-12-9-18-6-20-11-40-17-59-5-14-10-28-20-38-20-22-56-29-82-15-13 7-24 18-35 28-20 20-41 41-61 61-31-30-61-61-91-91-12-11-33-11-44 1-11 12-12 32-1 43 31 31 61 61 92 91-15 15-29 29-43 43-11 11-23 23-33 35-9 10-17 22-19 35-6 27 5 57 28 72 15 10 33 15 50 20 13 3 26 7 39 11 6 2 13 4 18 8 6 4 12 10 15 16 4 7 6 14 9 21 8 19 15 38 23 57 10 24 20 47 33 69 10 18 25 35 44 45z m329-91c3 1 6 1 9 1 68 0 136 0 205 0 8 0 16-2 23-8 9-8 13-23 8-35-4-11-16-20-29-19-70 0-140 0-209 0-8 0-16 3-22 9-9 8-11 22-7 33 4 9 12 17 22 19z m43-187c2 0 4 0 7 0 51 0 103 0 155 0 6 0 12 1 18 0 8-2 16-8 20-16 5-9 5-20 1-29-6-11-18-18-30-17-56 0-111 0-166 0-16 0-30 14-30 30-1 15 10 29 25 32z m-205-187c52 0 105 0 158 0 8 0 16 1 24-3 13-5 20-19 18-33-1-11-9-21-20-25-5-2-10-2-15-2-54 0-109 0-163 1-16-1-30 14-31 30 0 16 13 31 29 32z m334 0c14 0 29 0 43 0 9 0 17-3 23-9 9-9 11-23 7-34-5-12-17-19-29-20-14 0-29 0-43 1-12 0-24 8-28 19-4 9-3 19 2 28 5 8 15 14 25 15z" horiz-adv-x="1000" />

<glyph glyph-name="sale" unicode="&#xe849;" d="M494 765c30 2 62-8 87-27 14-11 28-23 42-35 11-9 25-15 39-16 20-2 40-3 59-6 44-7 82-37 100-77 3-7 7-15 6-23 0-12-8-23-19-27-12-5-25-2-34 6-3 4-6 8-8 13-8 24-30 43-55 46-19 3-39 4-58 6-27 3-53 15-74 33-12 10-24 21-36 31-20 15-48 18-71 8-7-3-14-8-20-13-12-9-23-19-35-29-20-17-46-28-73-30-18-2-36-3-53-5-25-3-46-21-56-44-3-7-4-16-5-24-2-15-3-30-4-45-3-27-13-53-30-73-12-14-24-27-35-42-14-18-17-43-10-65 2-6 6-12 6-19 2-12-5-25-16-31-11-5-24-4-34 3-5 4-9 11-11 17-18 40-14 89 10 125 13 19 29 36 43 53 5 7 9 15 12 24 3 9 3 20 4 30 1 18 2 36 7 54 10 40 40 75 79 90 14 6 29 8 44 10 14 1 28 2 42 4 15 1 29 7 40 16 12 10 23 20 35 30 9 7 18 13 27 18 17 8 36 13 55 14z m125-259c7 1 15 0 21-3 8-5 13-12 15-20 3-9 1-18-4-26-2-3-5-5-7-8-83-82-165-165-248-247-11-10-29-11-40-2-8 6-12 16-12 25 0 9 3 17 9 22 83 84 167 167 250 250 4 4 10 7 16 9z m-232-11c11 3 23 0 33-7 10-7 17-19 18-31 0-11-3-21-10-29-8-10-20-16-33-15-13 0-25 6-33 17-7 10-10 24-6 36 4 14 16 26 31 29z m482-69c10 1 20-2 27-9 5-5 8-12 10-19 16-40 11-87-13-122-13-18-28-34-41-51-9-10-14-24-15-38-2-19-3-39-6-59-7-45-39-84-81-101-14-6-29-8-44-10-15-1-29-2-44-4-10 0-20-4-29-9-7-4-13-10-20-15-13-12-26-23-41-33-43-29-104-28-147 2-17 12-33 27-49 40-11 9-24 14-38 15-20 2-40 3-59 6-43 7-81 36-99 76-4 8-8 17-7 26 1 14 13 26 27 27 14 3 29-6 33-20 8-21 26-39 48-46 10-2 21-3 31-4 18-2 37-1 54-6 16-5 31-12 45-22 10-8 19-16 29-24 8-7 16-14 25-20 21-12 48-12 69 0 9 5 16 11 24 17 8 8 17 15 25 22 21 18 47 28 74 31 15 1 30 2 45 4 8 1 16 2 24 5 22 9 39 29 43 53 3 21 4 42 6 63 3 18 9 36 19 51 6 9 13 18 20 26 9 10 17 19 25 30 14 18 18 45 10 67-2 5-5 9-6 14-2 12 3 25 14 32 3 2 7 4 12 5z m-270-139c11 2 23-2 32-9 9-7 14-18 15-30 1-13-5-26-15-34-8-7-21-11-32-9-13 1-24 9-31 20-6 10-7 24-3 36 5 14 19 24 34 26z" horiz-adv-x="1000" />

<glyph glyph-name="shield" unicode="&#xe84a;" d="M483 797c18 2 35 1 53-2 21-4 42-11 62-17 33-11 66-23 98-34 36-12 71-24 106-38 17-7 35-14 51-23 12-7 24-16 32-27 9-13 13-28 15-43 4-26 5-52 6-79 1-58 0-116 0-175 1-37-3-74-11-111-12-54-36-106-70-151-4-6-8-13-14-18-12-9-30-8-41 2-11 10-13 29-4 41 19 24 35 50 47 77 18 40 28 83 30 127 1 15 1 30 1 45 0 31 0 61 0 92-1 40 0 80-3 119-1 11-2 22-5 32-1 3-2 6-4 8-10 8-21 13-32 18-29 12-58 22-88 32-37 13-74 26-111 39-20 6-39 13-59 18-15 4-30 7-46 6-17 0-33-4-49-9-20-6-40-13-60-19-35-13-71-25-106-37-29-10-58-20-85-33-9-3-17-7-25-13-2-1-5-3-6-6-2-7-3-15-4-23-3-20-3-40-4-60-1-37-1-73-1-110 0-7 1-14-2-20-4-12-17-21-30-20-12 0-24 9-28 21-3 6-2 13-2 19 0 39 0 77 1 115 0 24 1 47 5 70 2 17 6 34 16 48 10 13 24 21 38 29 24 12 51 22 77 31 37 14 74 26 111 39 24 8 49 17 73 25 22 7 45 13 68 15z m-354-499c15 2 31-9 34-24 7-31 16-61 30-88 25-51 63-94 106-129 41-33 86-58 133-78 11-5 23-10 35-12 15-3 30-3 45-2 15 0 29 3 43 8 29 12 57 25 84 41 7 4 13 9 20 11 14 3 30-4 36-17 7-13 2-31-11-39-28-18-58-34-89-47-14-6-28-12-42-15-21-5-42-5-62-5-17 1-34 2-51 7-13 3-25 9-37 14-47 20-92 46-133 77-45 35-85 77-114 125-26 42-44 88-54 137-2 12 4 26 16 32 3 2 7 3 11 4z" horiz-adv-x="1000" />

<glyph glyph-name="shield-check" unicode="&#xe84b;" d="M483 797c18 2 36 1 54-3 21-4 42-10 62-17 33-11 66-22 99-33 35-13 70-25 105-38 17-7 35-14 51-24 12-7 24-15 31-27 9-12 13-27 15-42 4-26 5-53 6-80 1-59 0-118 0-177 1-39-3-77-13-115-13-53-36-102-69-146-5-6-9-13-16-17-10-7-25-7-35 1-7 5-12 15-13 24 0 7 3 15 7 20 20 26 37 54 49 84 16 38 25 79 27 121 1 14 1 28 1 41 0 31 0 62 0 93 0 39 0 77-3 115-1 14-2 27-6 40-1 5-6 7-9 9-14 9-29 15-44 21-34 13-68 25-103 37-34 12-68 24-103 35-19 6-38 12-58 15-15 2-31 2-46-2-20-4-38-10-57-16-27-9-54-18-81-27-33-12-67-24-101-36-18-7-36-14-54-24-4-2-9-5-13-9-2-5-3-11-4-17-3-19-4-39-5-58-1-40-1-79-1-119 0-7 1-14-2-21-4-12-17-21-30-20-12 0-24 9-28 21-3 6-2 13-2 19 0 35 0 69 0 104 1 23 2 46 4 69 1 13 3 27 8 39 3 9 7 17 13 24 8 9 18 16 28 22 14 8 30 15 46 21 32 13 64 24 97 35 35 12 70 24 105 36 29 10 58 19 88 22z m106-336c13 7 30 4 39-7 10-11 10-30 0-41-50-56-100-112-150-168-11-12-33-13-45 0-20 22-40 45-60 68-7 7-10 16-8 26 2 11 11 21 22 24 11 4 24 0 32-8 12-14 24-28 36-41 40 44 80 89 121 134 4 5 7 10 13 13z m-460-163c16 2 31-9 34-24 7-31 17-61 31-90 25-50 64-94 108-129 43-35 93-62 144-82 13-5 26-8 40-8 15-1 29-1 44 1 15 2 30 9 44 15 23 10 46 22 68 35 6 4 12 8 19 9 13 3 28-4 33-16 6-10 5-23-1-32-3-4-7-7-11-10-27-17-56-32-86-44-14-7-28-13-43-16-21-5-42-5-63-5-18 1-36 3-52 8-14 4-26 9-39 15-49 21-96 49-138 82-45 36-84 80-112 130-21 37-37 77-46 119-1 6-2 12 0 19 3 12 14 21 26 23z" horiz-adv-x="1000" />

<glyph glyph-name="shield-star" unicode="&#xe84c;" d="M483 797c23 2 46 0 68-6 32-8 63-19 95-30 37-12 74-25 111-38 21-8 42-15 62-24 14-6 29-12 42-21 11-7 21-16 27-27 8-14 11-30 13-46 4-26 4-53 5-79 1-56 0-113 0-169 1-39-3-78-13-116-13-54-38-105-71-149-4-5-7-10-12-13-9-7-22-8-32-3-11 5-18 16-18 28 0 7 3 15 8 20 21 27 38 56 50 87 17 42 25 87 26 131 0 27 0 53 0 79 0 36 0 73-1 110 0 18-1 37-2 55-1 9-2 19-5 28-1 3-2 6-4 8-11 8-23 13-34 18-32 14-64 25-97 36-35 12-70 24-105 36-21 7-41 14-62 19-15 4-29 5-44 4-18-1-34-6-51-11-26-8-52-17-77-26-47-16-94-32-140-50-17-6-33-13-48-22-4-2-8-4-9-8-3-8-4-16-5-24-2-20-2-39-3-59-1-37-1-73-1-110 0-7 1-14-2-21-5-12-18-20-32-19-12 1-23 9-26 21-3 6-2 13-2 19 0 41 0 82 1 123 1 23 2 46 6 69 3 15 7 31 17 43 9 10 20 18 31 24 18 10 36 17 54 24 36 14 73 27 110 39 30 11 61 21 92 32 26 8 51 16 78 18z m-14-218c10 7 22 11 34 11 12-1 22-6 31-13 11-9 18-21 25-33 9-15 18-31 27-46 21-6 42-10 63-16 13-4 25-10 34-20 11-10 16-26 15-40-1-14-8-26-15-37-13-19-29-35-44-53 0-1-1-2-1-3 2-22 5-44 5-67 1-14-1-29-7-41-8-14-22-24-38-27-14-2-29 2-43 8-19 7-37 16-55 24-19-8-37-17-56-25-12-4-26-8-40-7-14 2-27 9-36 21-8 11-11 27-11 41 0 20 2 40 4 59 0 5 1 10 1 15-11 14-23 27-34 41-9 11-18 23-23 37-4 12-4 26 1 37 4 11 12 21 22 27 12 7 27 11 41 15 15 4 30 7 45 10 10 17 19 34 29 50 7 12 15 24 26 32z m-340-281c16 2 31-9 34-24 7-31 17-61 30-88 27-53 67-99 113-134 42-33 89-59 139-79 13-5 27-8 41-8 15-1 31-1 46 2 16 2 31 9 46 16 25 11 49 24 72 38 7 5 17 6 25 4 10-3 19-12 22-22 3-10 0-22-7-29-4-5-9-7-13-10-31-19-63-34-96-48-15-6-31-10-48-12-18-2-36-2-54-1-19 1-38 5-56 12-48 19-94 43-136 73-47 33-88 73-120 120-32 46-54 99-65 154-2 12 5 26 16 32 4 2 7 3 11 4z" horiz-adv-x="1000" />

<glyph glyph-name="shield-up" unicode="&#xe84d;" d="M483 797c22 2 45 0 66-5 32-8 62-19 93-29 38-13 77-27 115-40 28-10 57-20 84-33 14-8 29-16 40-28 11-13 15-29 18-45 5-28 6-56 7-84 1-59 0-119 0-178 1-38-3-77-13-114-13-55-39-108-74-153-3-4-7-8-11-11-10-6-24-6-34 1-11 8-16 23-12 36 2 6 6 11 10 16 20 26 37 56 49 88 15 41 22 84 23 128 0 30 0 61 0 91 0 36 0 71-1 107-1 18-1 36-4 54-1 7-2 14-4 20-1 4-5 5-7 7-12 8-24 13-37 18-30 13-60 23-91 34-38 13-75 26-113 38-20 7-39 13-60 18-14 2-28 3-43 1-16-2-32-6-48-11-25-8-49-17-74-25-35-12-71-24-106-37-19-7-38-14-57-22-9-4-19-9-28-15-2-1-4-3-5-5-3-6-4-11-5-17-2-18-3-37-4-55-1-43-1-85-1-127 1-6 0-12-2-17-6-13-21-20-34-18-15 2-26 16-26 30 0 36 0 71 0 107 1 25 1 50 4 75 1 14 3 27 8 40 3 9 7 18 13 25 9 9 20 16 31 23 23 12 48 21 73 31 39 14 79 27 118 41 26 9 51 18 77 26 21 6 43 12 65 14z m5-283c16 2 33-1 48-9 5-3 10-6 14-10 46-34 91-68 136-102 13-10 16-30 6-43-10-13-30-16-43-7-46 35-92 69-139 104-3 2-6 6-10 5-4 0-7-3-10-5-47-35-93-69-139-104-13-9-33-6-43 7-10 13-7 33 6 43 45 34 90 68 136 102 4 3 8 7 13 9 8 5 16 8 25 10z m-6-162c8 7 20 8 30 4 5-2 8-5 13-8 26-20 52-40 78-59 13-10 15-31 5-43-9-13-29-17-42-7-22 16-44 33-66 49-21-16-43-32-64-48-7-5-16-8-25-6-12 2-22 11-24 22-4 12 1 26 11 33 28 21 56 42 84 63z m-353-54c15 2 31-9 34-24 7-33 18-65 33-94 27-51 65-94 110-128 43-33 91-60 141-79 17-7 35-9 54-8 14 0 28 0 42 4 12 4 24 9 36 15 24 10 48 23 70 37 7 4 16 6 24 4 11-2 20-11 24-21 3-11 0-22-7-30-3-5-8-7-13-10-31-18-63-34-96-48-15-6-31-10-47-12-18-2-36-2-54-1-20 1-39 4-57 12-48 19-95 43-137 73-47 34-90 76-122 124-28 41-47 87-59 135-1 8-4 17-3 25 2 13 14 24 27 26z" horiz-adv-x="1000" />

<glyph glyph-name="shield-warning" unicode="&#xe84e;" d="M483 797c22 2 45 0 66-5 33-8 64-19 95-30 40-14 80-27 120-42 28-10 55-20 81-33 15-7 29-16 39-29 10-13 14-30 16-46 4-28 5-56 6-84 1-58 0-116 0-174 1-39-4-78-13-116-14-53-39-103-72-147-3-4-6-9-11-12-9-7-23-8-33-3-11 6-18 18-16 31 0 7 3 13 8 18 21 27 38 57 50 89 17 43 25 90 25 137 0 60 0 120-1 180 0 19-1 37-3 56 0 9-2 19-4 28-1 2-2 5-3 6-5 5-11 8-16 11-14 6-28 12-42 18-33 13-68 24-102 36-33 11-66 23-99 34-19 6-39 12-59 15-16 2-33 0-49-4-17-4-35-10-52-15-28-10-57-20-85-29-35-12-70-24-105-38-17-7-34-13-50-23-4-2-8-4-9-8-4-13-5-26-6-39-3-38-2-77-3-116 0-16 0-31 0-47 0-8-3-17-10-23-9-8-23-11-34-5-11 5-18 16-18 28 0 50-1 100 2 151 1 18 2 37 6 55 2 12 6 23 12 33 6 9 14 16 23 22 11 7 24 14 37 19 27 12 56 22 85 32 39 14 78 28 118 41 24 8 47 16 71 22 12 3 23 5 35 6z m9-250c13 4 28-2 35-14 3-6 4-12 4-18 0-55 0-110 0-164 0-9-3-18-9-23-9-9-24-12-36-6-10 5-17 16-17 28 0 53 0 106 0 160 0 5-1 10 1 15 3 11 11 19 22 22z m-363-249c15 2 31-9 34-24 7-31 17-61 31-90 26-51 65-96 110-131 43-34 91-60 141-80 12-5 25-7 38-8 15-1 31-1 46 1 17 2 32 10 47 16 23 10 45 21 66 34 6 4 12 8 19 9 14 3 28-5 34-17 5-11 3-24-4-33-3-4-7-7-10-9-28-17-58-32-88-45-14-6-29-12-45-15-21-4-42-4-64-4-20 1-41 5-61 13-49 19-96 44-140 75-45 33-86 73-118 120-29 43-49 90-60 140-2 8-4 15-2 23 2 13 13 23 26 25z m364-32c11 2 22 0 31-7 10-6 16-18 18-30 1-11-3-23-11-32-8-9-19-14-31-14-14 0-27 7-34 18-8 11-10 25-6 37 5 14 18 26 33 28z" horiz-adv-x="1000" />

<glyph glyph-name="verified" unicode="&#xe84f;" d="M494 765c30 2 62-8 87-27 14-11 28-23 42-35 11-9 25-15 39-16 20-2 40-3 59-6 43-7 82-37 100-76 3-8 8-17 6-27-2-14-14-25-28-26-14-2-28 7-32 20-9 25-32 44-58 48-18 2-36 3-54 5-28 2-54 14-75 32-12 11-24 22-37 32-20 15-48 18-71 8-7-3-13-7-20-12-12-10-23-20-35-30-21-17-46-28-73-30-18-2-36-3-53-5-31-4-57-30-60-61-3-17-4-35-5-53-3-26-14-52-31-73-10-12-20-24-30-36-4-6-9-11-12-18-7-16-8-35-2-52 2-6 6-12 6-20 2-14-8-27-21-32-13-4-30 2-37 14-20 40-19 89 3 128 10 16 23 30 35 45 7 7 13 14 18 23 4 8 7 17 8 27 2 20 3 40 6 59 4 26 17 51 35 70 17 18 39 32 64 38 22 5 46 5 69 8 15 1 29 7 40 16 11 9 22 19 33 28 9 7 19 15 29 20 17 8 36 13 55 14z m146-280c12 3 26-3 33-15 7-11 5-28-4-37-70-70-140-140-209-209-6-6-15-10-23-9-8 0-16 3-22 9-27 28-55 55-83 83-8 8-11 20-8 31 3 11 13 20 24 22 10 2 21-1 28-9 20-20 40-39 60-59 1-1 2-2 2-1 61 61 122 121 182 182 5 6 12 10 20 12z m229-59c10 2 20-2 27-9 5-5 8-12 10-19 16-39 11-85-12-120-13-19-29-36-43-53-8-11-13-24-14-38-2-20-3-40-6-60-8-44-40-83-82-100-15-7-31-9-48-10-13-2-27-2-40-4-14-1-28-7-38-16-14-12-28-25-43-36-10-8-22-14-34-18-36-13-76-10-109 7-17 10-31 23-46 35-9 7-17 16-28 21-8 4-16 7-24 7-21 2-41 3-61 6-43 7-81 37-99 76-3 8-7 17-6 26 1 14 13 26 27 27 14 3 29-6 33-20 8-22 26-40 49-46 10-2 21-3 31-4 18-2 36-2 53-6 16-5 32-12 46-23 10-7 19-16 29-24 8-6 15-13 24-19 24-13 56-12 78 5 9 8 19 16 28 24 8 7 16 14 25 20 14 8 29 15 45 18 10 3 21 3 32 4 12 1 24 2 36 4 25 3 47 20 56 43 4 8 5 16 6 25 1 15 2 29 3 44 3 26 13 51 29 71 12 15 25 29 36 45 16 20 18 49 7 72-6 13-3 28 7 37 4 4 10 7 16 8z" horiz-adv-x="1000" />

<glyph glyph-name="truck" unicode="&#xe850;" d="M163 778c27 13 58 20 88 20 124 0 249 0 373 0 7 0 15-2 21-7 7-6 11-15 11-24 0-31 0-63 0-94 15 0 30 0 45 0 32 0 64-14 85-37 8-9 15-19 20-29 46-81 93-162 139-243 4-8 3-17 3-25 0-57 0-113 0-169 0-19 1-38-2-56-6-30-20-58-41-80-22-23-52-40-84-46-14-3-29-3-44-3-8-29-29-55-55-69-31-17-68-19-100-5-32 13-56 41-66 74-37 0-75 0-112 0-8-27-26-51-51-66-22-14-49-20-75-16-26 4-51 16-68 35-13 14-22 30-27 47-10 1-20 0-30 1-29 3-58 15-82 33-23 18-40 43-50 71-6 17-9 35-9 53 1 15 12 28 26 30 14 2 29-6 34-19 4-8 2-16 3-24 4-28 20-53 43-68 15-9 33-14 50-14 5 0 10 0 15 0 8 29 28 54 55 69 30 17 69 19 101 5 31-13 56-41 65-74 37 0 75 0 112 0 8 28 28 53 53 68 27 15 59 19 89 11 30-8 56-30 71-58 3-6 6-14 8-21 11 0 22-1 33 2 29 5 54 25 66 51 6 13 9 26 9 40 1 31 0 63 1 95-27 0-54 0-80 0-11 0-21-1-31 1-16 4-31 14-41 27-9 12-15 27-15 42 0 43 0 86 0 128 0 16 5 31 14 43 14 18 36 29 59 29-14 24-27 47-40 70-4 6-6 11-10 16-10 11-25 18-40 18-15 0-30 0-46 0 0-79 0-159 0-239 0-14 1-28-2-41-5-29-22-56-46-73-20-15-45-22-70-21-13 0-27-1-40 0-15 0-27 12-29 26-2 14 6 29 20 34 3 1 7 2 12 2 14 0 28 0 42 0 12 0 24 5 33 13 11 10 18 24 18 39 0 128 0 257 0 386-110 0-219 0-328 0-12-1-24 0-36-2-40-6-77-31-97-67-5-8-12-14-21-16-12-3-25 2-32 11-8 10-9 23-3 34 19 35 50 64 86 82m618-345c0-41 0-83 0-125 0-4 3-8 7-9 3-1 6-1 9-1 29 0 59 0 88 0 1 15 1 29 0 44-19 34-38 68-58 102-11 0-23 0-35 0-6 0-11-5-11-11m-456-365c-17-3-32-15-39-30-6-12-6-27-1-39 4-13 14-23 26-29 12-6 27-7 40-2 12 4 23 13 29 25 7 13 7 29 2 43-5 13-16 23-29 29-9 4-19 5-28 3m333 0c-15-2-29-12-37-26-7-12-8-29-3-43 4-13 15-25 28-30 17-8 38-5 52 6 15 11 23 30 20 48-1 15-10 29-23 37-10 7-24 10-37 8z m-582 479c3 1 6 1 10 1 80 0 160 0 241 0 5 0 10 0 14-1 9-2 17-9 21-17 5-11 3-26-6-35-7-7-16-10-25-9-83 0-165 0-248 0-10 0-21 5-26 14-7 10-6 24 0 34 4 6 11 11 19 13z m0-125c5 1 9 1 14 1 54 0 107 0 161 0 15 0 28-12 30-27 2-12-5-26-16-32-5-2-10-3-15-4-55 0-109 0-164 0-6 0-11 1-16 4-11 5-18 17-18 29 0 13 11 26 24 29z m5-124c29 0 58 0 87 0 12-1 23-8 28-19 4-11 2-24-5-33-6-6-15-10-24-10-28 0-56 0-84 0-9 0-18 4-23 10-8 9-10 23-5 33 4 11 15 18 26 19z" horiz-adv-x="1000" />
</font>
</defs>
</svg>
